Вы используете незарегистрированную версию компонента "Вкладки"!

Поиск

2017 Laurent De Wilde & Ray Lema - Live at Jazz A La Villette [HDTV 1080i]

2017 Laurent De Wilde & Ray Lema - Live at Jazz A La Villette [HDTV 1080i]
Дата проведения концерта (записи):
8 сентября 2017
Место проведения:
la Cite de la musique, Paris
Время звучания:
00:44:16
Состав:
  • Laurent de Wilde - piano
  • Ray Lema - piano
Видео:
AVC,1920*1080i (16:9), 4868kbps, 25fps
Аудио#1:
MPEG2, 256kbps, 48kHz, 2ch
Отчёт DVDInfo/MediaInfo/BDInfo
Общее
Идентификатор : 1 (0x1)
Полное имя : \\NASF8F4EB\Videos\HD Video\Laurent De Wilde\2017 Laurent De Wilde & Ray Lema - Liva at Jazz A La Villette\2017 Laurent De Wilde & Ray Lema - Liva at Jazz A La Villette.ts
Формат : MPEG-TS
Размер файла : 1,67 Гбайт
Продолжительность : 44 м. 16 с.
Режим общего битрейта : Переменный
Общий поток : 5393 Кбит/сек

Видео
Идентификатор : 203 (0xCB)
Идентификатор меню : 1 (0x1)
Формат : AVC
Формат/Информация : Advanced Video Codec
Профиль формата : High@L4
Настройки формата : CABAC / 4 Ref Frames
Параметр CABAC формата : Да
Параметр RefFrames формата : 4 кадра
Идентификатор кодека : 27
Продолжительность : 44 м. 16 с.
Битрейт : 4868 Кбит/сек
Ширина : 1920 пикселей
Высота : 1080 пикселей
Соотношение сторон : 16:9
Частота кадров : 25,000 кадров/сек
Стандарт вещания : Component
Цветовое пространство : YUV
Субдискретизация насыщенности : 4:2:0
Битовая глубина : 8 бит
Тип развёртки : Чересстрочная
Метод сохранения типа развёртки : Раздельные поля
Порядок развёртки : Верхнее поле первое
Бит/(Пиксели*Кадры) : 0.094
Размер потока : 1,51 Гбайт (90%)
Цветовой диапазон : Limited
Основные цвета : BT.709
Характеристики трансфера : BT.709
Коэффициенты матрицы : BT.709

Аудио
Идентификатор : 303 (0x12F)
Идентификатор меню : 1 (0x1)
Формат : MPEG Audio
Версия формата : Version 1
Профиль формата : Layer 2
Идентификатор кодека : 3
Продолжительность : 44 м. 16 с.
Вид битрейта : Постоянный
Битрейт : 256 Кбит/сек
Каналы : 2 канала
Частота : 48,0 КГц
Частота кадров : 41,667 кадра/сек (1152 SPF)
Метод сжатия : С потерями
Размер потока : 81,1 Мбайт (5%)
Язык : English
Any questions - support@pro-jazz.com. Есть вопросы - support@pro-jazz.com
260
Нет комментариев. Ваш будет первым!