Вы используете незарегистрированную версию компонента "Вкладки"!

Поиск

2015 Uri Caine & Han Bennink - Live at Subculture, NYC Winter Jazz Festival [HDTV 1080i]

2015 Uri Caine & Han Bennink - Live at Subculture, NYC Winter Jazz Festival [HDTV 1080i]
Дата проведения концерта (записи):
9 января 2015
Место проведения:
SUBCULTURE 45 Bleecker Street NYC
Время звучания:
00:36:12
Состав:
  • Uri Caine - piano, keyboard
  • Han Bennink - drums
Видео:
AVC,1920*1080i (16:9), 4895kbps, 25fps
Аудио#1:
MPEG2, 256kbps, 48kHz, 2ch
Отчёт DVDInfo/MediaInfo/BDInfo
Общее
Идентификатор : 1 (0x1)
Полное имя : \\NASF8F4EB\Videos\HD Video\Uri Caine\2015 Uri Caine & Han Bennink - Winter Jazz Festival.ts
Формат : MPEG-TS
Размер файла : 1,37 Гбайт
Продолжительность : 36 м. 12 с.
Режим общего битрейта : Переменный
Общий поток : 5422 Кбит/сек

Видео
Идентификатор : 203 (0xCB)
Идентификатор меню : 20103 (0x4E87)
Формат : AVC
Формат/Информация : Advanced Video Codec
Профиль формата : High@L4
Настройки формата : CABAC / 4 Ref Frames
Параметр CABAC формата : Да
Параметр RefFrames формата : 4 кадра
Параметр GOP формата : M=4, N=28
Идентификатор кодека : 27
Продолжительность : 36 м. 12 с.
Битрейт : 4895 Кбит/сек
Ширина : 1920 пикселей
Высота : 1080 пикселей
Соотношение сторон : 16:9
Частота кадров : 25,000 кадров/сек
Стандарт вещания : Component
Цветовое пространство : YUV
Субдискретизация насыщенности : 4:2:0
Битовая глубина : 8 бит
Тип развёртки : Чересстрочная
Метод сохранения типа развёртки : Раздельные поля
Порядок развёртки : Верхнее поле первое
Бит/(Пиксели*Кадры) : 0.094
Размер потока : 1,24 Гбайт (90%)
Цветовой диапазон : Limited
Основные цвета : BT.709
Характеристики трансфера : BT.709
Коэффициенты матрицы : BT.709

Аудио
Идентификатор : 303 (0x12F)
Идентификатор меню : 20103 (0x4E87)
Формат : MPEG Audio
Версия формата : Version 1
Профиль формата : Layer 2
Идентификатор кодека : 3
Продолжительность : 36 м. 12 с.
Вид битрейта : Постоянный
Битрейт : 256 Кбит/сек
Каналы : 2 канала
Частота : 48,0 КГц
Частота кадров : 41,667 кадра/сек (1152 SPF)
Метод сжатия : С потерями
Размер потока : 66,3 Мбайт (5%)
Язык : Russian
Any questions - support@pro-jazz.com. Есть вопросы - support@pro-jazz.com
319
Нет комментариев. Ваш будет первым!