Поиск

2017 Panorama Circus feat. Logan Richardson & Mederic Collignon - Jazz a Porquerolles [HDTV 1080i]

2017 Panorama Circus feat. Logan Richardson & Mederic Collignon - Jazz a Porquerolles [HDTV 1080i]
Стили:
Описание:

Продолжительность: 59:45
Год выпуска: 2017

Panorama Circus является проектом французских музыкантов Маттие Джерома (Matthieu Jerome) и Жана-Франсуа Бланко (Jean-Francois Blanco). Музыкальные интересы пианиста Джерома простираются в области джаза, афробита, фанка, поп музыки и хип-хопа, в то время как алхимик звука Бланко питает страсть к электронике и тем звукам, которые можно получить с её помощью. С 2015 года, с проектом Панорама-цирк, у двух спутников сложился гипнотический джаз, своего рода музыкальный пузырь на границе между современным джазом, фанком и страстно зажигающими латинскими ритмами.
Первая попытка Panorama Circus, "Painter Of Soul" — это блестящий опус, совмещающий смесь влияний, основанную на скретчах, семплах виброфона, или волнующие полеты фантазии чередующиеся с небрежными темами. Звучащая эмуляция, или громкие вставки рояля, добавляют новые повороты. Их второй альбом, "ArtSounds of Memories", также цепляет. Менее разрозненный, чем предыдущий, он фокусируется на звуке медных духовых, объединяя двух артистов, французского корнетиста Медерика Коллиньона (Mederic Collignon), влюбленного в музыку кино, и американского саксофониста Логана Ричардсона (Logan Richardson), раскаленного добела и чувственного джазмена.
На сцене Форт-Сент-Агат они сформировали престижный квартет, и мелодии, иногда бесформенные, раздутые до неимоверных размеров, просто ирреальны.
Этот концерт был снят 07 июля 2017 года в рамках фестиваля Jazz a Porquerolles.
Продукция: Oleo Films
Качество: HDTV
Разрешение видео/развертка: 1080i
Контейнер: TS
Видео кодек: H.264
Аудио кодек: MP2
Видео: AVC, 1920*1080i, 4 972 kb/s, 25 FPS
Аудио: MP2, 256 kb/s, 48.0 kHz, 2 channels

 
Отчёт MediaInfo / BDInfo
General
ID                          : 1 (0x1)
Complete name               : \\NASF8F4EB\Videos\HD Video\Panorama Circus feat Logan Richardson\2017 Panorama Circus present Logan Richardson - Jazz a Porquerolles.ts
Format                      : MPEG-TS
File size                   : 2.30 GiB
Duration                    : 59 min 45 s
Overall bit rate mode       : Variable
Overall bit rate            : 5 503 kb/s
Video
ID                          : 203 (0xCB)
Menu ID                     : 20103 (0x4E87)
Format                      : AVC
Format/Info                 : Advanced Video Codec
Format profile              : High@L4
Format settings             : CABAC / 4 Ref Frames
Format settings, CABAC      : Yes
Format settings, ReFrames   : 4 frames
Format settings, GOP        : M=4, N=28
Codec ID                    : 27
Duration                    : 59 min 45 s
Bit rate                    : 4 972 kb/s
Width                       : 1 920 pixels
Height                      : 1 080 pixels
Display aspect ratio        : 16:9
Frame rate                  : 25.000 FPS
Standard                    : Component
Color space                 : YUV
Chroma subsampling          : 4:2:0
Bit depth                   : 8 bits
Scan type                   : Interlaced
Scan type, store method     : Separated fields
Scan order                  : Top Field First
Bits/(Pixel*Frame)          : 0.096
Stream size                 : 2.08 GiB (90%)
Color range                 : Limited
Color primaries             : BT.709
Transfer characteristics    : BT.709
Matrix coefficients         : BT.709
Audio
ID                          : 303 (0x12F)
Menu ID                     : 20103 (0x4E87)
Format                      : MPEG Audio
Format version              : Version 1
Format profile              : Layer 2
Codec ID                    : 3
Duration                    : 59 min 45 s
Bit rate mode               : Constant
Bit rate                    : 256 kb/s
Channel(s)                  : 2 channels
Sampling rate               : 48.0 kHz
Frame rate                  : 41.667 FPS (1152 SPF)
Compression mode            : Lossy
Stream size                 : 109 MiB (5%)
Language                    : Russian
 
Скриншоты

Приватный:
Нет (DHT включён)
Размер:
2.30 Гб (2,466,502,062 байт) » файлов: 2
Участники:
0 раздают, 0 качают (0 участников всего)
Внешние участники:
3 раздают, 1 качают (4 участников всего) [ Обновить ]
57
Нет комментариев. Ваш будет первым!