Вы используете незарегистрированную версию компонента "Вкладки"!

Поиск

2010 John Scofield - New Morning - The Paris Concert [Blu-ray]

2010 John Scofield - New Morning - The Paris Concert [Blu-ray]
Описание:

Продолжительность: 01:56:27
Год выпуска: 2010
Треклист:
01. Ten Taken
02. Woody 'n You
03. Slinky
04. My Foolish Heart
05. Steeplechase
06. Hive
07. Lost Found & Inbetween
08. Chirikawa
09. Relaxin' At Camarillo
10. I Want To Talk About You
11. Groove Elation
12. The Guiness Spot

Качество: Blu-ray
Контейнер: M2TS
Видео: 1080i/MPEG-4 AVC, 29,970 fps, 16:9, bitrate: 17496 kbps
Аудио: DTS-HD MA 5.1 (48 kHz / 4938 kbps / 24-bit), LPCM 2.0 (48 kHz / 2304 kbps / 24-bit)

 
BDinfo

Disc Title: SCOFIELD
Disc Size: 24 379 648 375 bytes
Protection: AACS
BD-Java: No
BDInfo: 0.5.6
Notes:
BDINFO HOME:
Cinema Squid
http://www.cinemasquid.com/blu-ray/tools/bdinfo
INCLUDES FORUMS REPORT FOR:
AVS Forum Blu-ray Audio and Video Specifications Thread
http://www.avsforum.com/avs-vb/showthread.php?t=1155731
********************
PLAYLIST: 00000.MPLS
********************
< — BEGIN FORUMS PASTE --->

Код:

Total   Video
Title                                                           Codec   Length  Movie Size      Disc Size       Bitrate Bitrate Main Audio Track                          Secondary Audio Track
-----                                                           ------  — --------------  --------------  — ------- ------------------                        ---------------------
00000.MPLS                                                      AVC     1:56:27 22 869 835 776  24 379 648 375  26,19   17,50   DTS-HD Master 5.1 4938Kbps (48kHz/24-bit) LPCM 2.0 2304Kbps (48kHz/24-bit)

Код:

DISC INFO:
Disc Title:     SCOFIELD
Disc Size:      24 379 648 375 bytes
Protection:     AACS
BD-Java:        No
BDInfo:         0.5.6
PLAYLIST REPORT:
Name:                   00000.MPLS
Length:                 1:56:27 (h:m:s)
Size:                   22 869 835 776 bytes
Total Bitrate:          26,19 Mbps
VIDEO:
Codec                   Bitrate             Description
-----                   -------             -----------
MPEG-4 AVC Video        17496 kbps          1080i / 29,970 fps / 16:9 / High Profile 4.1
AUDIO:
Codec                           Language        Bitrate         Description
-----                           --------        -------         -----------
DTS-HD Master Audio             English         4938 kbps       5.1 / 48 kHz / 4938 kbps / 24-bit (DTS Core: 5.1 / 48 kHz / 1509 kbps / 24-bit)
LPCM Audio                      English         2304 kbps       2.0 / 48 kHz / 2304 kbps / 24-bit
FILES:
Name            Time In         Length          Size            Total Bitrate
----            -------         ------          ----            -------------
00001.M2TS      0:00:00.000     1:56:27.013     22 869 835 776  26 186
CHAPTERS:
Number          Time In         Length          Avg Video Rate  Max 1-Sec Rate  Max 1-Sec Time  Max 5-Sec Rate  Max 5-Sec Time  Max 10Sec Rate  Max 10Sec Time  Avg Frame Size  Max Frame Size  Max Frame Time
------          -------         ------          --------------  --------------  --------------  --------------  --------------  --------------  --------------  --------------  --------------  --------------
1               0:00:00.000     0:11:13.372     17 652 kbps     22 566 kbps     00:07:53.306    21 209 kbps     00:03:22.202    20 216 kbps     00:11:00.026    73 621 bytes    248 381 bytes   00:11:09.435
2               0:11:13.372     0:08:34.513     17 987 kbps     25 986 kbps     00:19:40.245    24 864 kbps     00:19:37.209    23 401 kbps     00:19:37.109    75 022 bytes    255 142 bytes   00:19:41.246
3               0:19:47.886     0:10:57.890     17 249 kbps     23 540 kbps     00:28:04.616    20 694 kbps     00:28:01.079    20 001 kbps     00:27:20.271    71 941 bytes    238 247 bytes   00:28:10.555
4               0:30:45.777     0:09:33.773     16 687 kbps     22 219 kbps     00:35:31.629    20 741 kbps     00:35:31.729    19 965 kbps     00:35:27.959    69 598 bytes    230 581 bytes   00:32:25.009
5               0:40:19.550     0:07:53.339     17 179 kbps     22 443 kbps     00:47:25.042    21 584 kbps     00:47:35.152    20 964 kbps     00:44:57.728    71 649 bytes    221 124 bytes   00:42:24.875
6               0:48:12.889     0:06:55.448     18 525 kbps     25 057 kbps     00:54:18.755    23 737 kbps     00:49:10.814    22 685 kbps     00:54:10.513    77 265 bytes    228 829 bytes   00:53:26.236
7               0:55:08.338     0:11:01.360     17 148 kbps     22 605 kbps     01:00:26.756    21 310 kbps     01:00:22.719    20 436 kbps     01:00:17.513    71 523 bytes    231 541 bytes   01:01:26.516
8               1:06:09.699     0:07:05.558     17 150 kbps     23 406 kbps     01:08:38.380    21 157 kbps     01:12:18.434    19 501 kbps     01:12:13.629    71 529 bytes    214 421 bytes   01:06:20.876
9               1:13:15.257     0:09:44.317     17 685 kbps     22 465 kbps     01:22:43.792    21 388 kbps     01:22:41.589    20 853 kbps     01:20:03.398    73 762 bytes    238 623 bytes   01:22:44.192
10              1:22:59.574     0:14:00.739     17 209 kbps     24 017 kbps     01:34:07.174    23 187 kbps     01:34:05.006    20 418 kbps     01:28:20.061    71 777 bytes    216 148 bytes   01:33:30.438
11              1:37:00.314     0:09:40.279     18 285 kbps     24 083 kbps     01:46:19.072    22 702 kbps     01:46:15.068    22 162 kbps     01:46:12.065    76 264 bytes    228 798 bytes   01:46:21.808
12              1:46:40.594     0:09:46.419     17 572 kbps     23 941 kbps     01:47:20.834    22 875 kbps     01:56:12.432    21 952 kbps     01:56:08.962    73 294 bytes    225 189 bytes   01:55:19.779
STREAM DIAGNOSTICS:
File            PID             Type            Codec           Language                Seconds                 Bitrate                 Bytes           Packets
----            ---             ----            -----           --------                --------------          --------------          -------------   -----
00001.M2TS      4113 (0x1011)   0x1B            AVC                                     6986,947                17 497                  15 280 989 163  83 170 755
00001.M2TS      4352 (0x1100)   0x86            DTS-HD MA       eng (English)           6986,947                4 939                   4 313 140 968   24 529 171
00001.M2TS      4353 (0x1101)   0x80            LPCM            eng (English)           6986,947                2 311                   2 017 936 572   11 179 704

< — END FORUMS PASTE ---->
QUICK SUMMARY:
Disc Title: SCOFIELD
Disc Size: 24 379 648 375 bytes
Protection: AACS
BD-Java: No
Playlist: 00000.MPLS
Size: 22 869 835 776 bytes
Length: 1:56:27
Total Bitrate: 26,19 Mbps
Video: MPEG-4 AVC Video / 17496 kbps / 1080i / 29,970 fps / 16:9 / High Profile 4.1
Audio: English / DTS-HD Master Audio / 5.1 / 48 kHz / 4938 kbps / 24-bit (DTS Core: 5.1 / 48 kHz / 1509 kbps / 24-bit)
Audio: English / LPCM Audio / 2.0 / 48 kHz / 2304 kbps / 24-bit
********************
PLAYLIST: 00001.MPLS
********************
< — BEGIN FORUMS PASTE --->

Код:

Total   Video
Title                                                           Codec   Length  Movie Size      Disc Size       Bitrate Bitrate Main Audio Track                          Secondary Audio Track
-----                                                           ------  — --------------  --------------  — ------- ------------------                        ---------------------
00001.MPLS                                                      AVC     0:08:02 1 372 170 240   24 379 648 375  22,73   17,00   LPCM 2.0 2304Kbps (48kHz/24-bit)          LPCM 2.0 2304Kbps (48kHz/24-bit)

Код:

DISC INFO:
Disc Title:     SCOFIELD
Disc Size:      24 379 648 375 bytes
Protection:     AACS
BD-Java:        No
BDInfo:         0.5.6
PLAYLIST REPORT:
Name:                   00001.MPLS
Length:                 0:08:02 (h:m:s)
Size:                   1 372 170 240 bytes
Total Bitrate:          22,73 Mbps
VIDEO:
Codec                   Bitrate             Description
-----                   -------             -----------
MPEG-4 AVC Video        16999 kbps          1080i / 29,970 fps / 16:9 / High Profile 4.1
AUDIO:
Codec                           Language        Bitrate         Description
-----                           --------        -------         -----------
LPCM Audio                      English         2304 kbps       2.0 / 48 kHz / 2304 kbps / 24-bit
LPCM Audio                      English         2304 kbps       2.0 / 48 kHz / 2304 kbps / 24-bit
FILES:
Name            Time In         Length          Size            Total Bitrate
----            -------         ------          ----            -------------
00000.M2TS      0:00:00.000     0:08:02.915     1 372 170 240   22 731
CHAPTERS:
Number          Time In         Length          Avg Video Rate  Max 1-Sec Rate  Max 1-Sec Time  Max 5-Sec Rate  Max 5-Sec Time  Max 10Sec Rate  Max 10Sec Time  Avg Frame Size  Max Frame Size  Max Frame Time
------          -------         ------          --------------  --------------  --------------  --------------  --------------  --------------  --------------  --------------  --------------  --------------
1               0:00:00.000     0:08:02.915     16 999 kbps     25 466 kbps     00:02:21.040    24 442 kbps     00:02:18.972    23 040 kbps     00:02:00.019    70 901 bytes    263 211 bytes   00:02:09.762
STREAM DIAGNOSTICS:
File            PID             Type            Codec           Language                Seconds                 Bitrate                 Bytes           Packets
----            ---             ----            -----           --------                --------------          --------------          -------------   -----
00000.M2TS      4113 (0x1011)   0x1B            AVC                                     482,782                 17 004                  1 026 148 329   5 585 280
00000.M2TS      4352 (0x1100)   0x80            LPCM            eng (English)           482,782                 2 311                   139 457 188     772 616
00000.M2TS      4353 (0x1101)   0x80            LPCM            eng (English)           482,782                 2 311                   139 457 188     772 616

< — END FORUMS PASTE ---->
QUICK SUMMARY:
Disc Title: SCOFIELD
Disc Size: 24 379 648 375 bytes
Protection: AACS
BD-Java: No
Playlist: 00001.MPLS
Size: 1 372 170 240 bytes
Length: 0:08:02
Total Bitrate: 22,73 Mbps
Video: MPEG-4 AVC Video / 16999 kbps / 1080i / 29,970 fps / 16:9 / High Profile 4.1
Audio: English / LPCM Audio / 2.0 / 48 kHz / 2304 kbps / 24-bit
Audio: English / LPCM Audio / 2.0 / 48 kHz / 2304 kbps / 24-bit
********************
PLAYLIST: 00003.MPLS
********************
< — BEGIN FORUMS PASTE --->

Код:

Total   Video
Title                                                           Codec   Length  Movie Size      Disc Size       Bitrate Bitrate Main Audio Track                          Secondary Audio Track
-----                                                           ------  — --------------  --------------  — ------- ------------------                        ---------------------
00003.MPLS                                                      AVC     0:00:35 125 626 368     24 379 648 375  28,69   25,02   DTS-HD Master 5.1 2168Kbps (48kHz/16-bit)

Код:

DISC INFO:
Disc Title:     SCOFIELD
Disc Size:      24 379 648 375 bytes
Protection:     AACS
BD-Java:        No
BDInfo:         0.5.6
PLAYLIST REPORT:
Name:                   00003.MPLS
Length:                 0:00:35 (h:m:s)
Size:                   125 626 368 bytes
Total Bitrate:          28,69 Mbps
VIDEO:
Codec                   Bitrate             Description
-----                   -------             -----------
MPEG-4 AVC Video        25020 kbps          1080p / 23,976 fps / 16:9 / High Profile 4.1
AUDIO:
Codec                           Language        Bitrate         Description
-----                           --------        -------         -----------
DTS-HD Master Audio             English         2168 kbps       5.1 / 48 kHz / 2168 kbps / 16-bit (DTS Core: 5.1 / 48 kHz / 1509 kbps / 16-bit)
FILES:
Name            Time In         Length          Size            Total Bitrate
----            -------         ------          ----            -------------
00003.M2TS      0:00:00.000     0:00:35.034     125 626 368     28 686
CHAPTERS:
Number          Time In         Length          Avg Video Rate  Max 1-Sec Rate  Max 1-Sec Time  Max 5-Sec Rate  Max 5-Sec Time  Max 10Sec Rate  Max 10Sec Time  Avg Frame Size  Max Frame Size  Max Frame Time
------          -------         ------          --------------  --------------  --------------  --------------  --------------  --------------  --------------  --------------  --------------  --------------
1               0:00:00.000     0:00:35.034     25 020 kbps     28 096 kbps     00:00:33.283    25 911 kbps     00:00:04.754    25 799 kbps     00:00:00.000    130 444 bytes   589 191 bytes   00:00:05.004
STREAM DIAGNOSTICS:
File            PID             Type            Codec           Language                Seconds                 Bitrate                 Bytes           Packets
----            ---             ----            -----           --------                --------------          --------------          -------------   -----
00003.M2TS      4113 (0x1011)   0x1B            AVC                                     34,868                  25 140                  109 572 814     595 990
00003.M2TS      4352 (0x1100)   0x86            DTS-HD MA       eng (English)           34,868                  2 178                   9 494 148       57 091

< — END FORUMS PASTE ---->
QUICK SUMMARY:
Disc Title: SCOFIELD
Disc Size: 24 379 648 375 bytes
Protection: AACS
BD-Java: No
Playlist: 00003.MPLS
Size: 125 626 368 bytes
Length: 0:00:35
Total Bitrate: 28,69 Mbps
Video: MPEG-4 AVC Video / 25020 kbps / 1080p / 23,976 fps / 16:9 / High Profile 4.1
Audio: English / DTS-HD Master Audio / 5.1 / 48 kHz / 2168 kbps / 16-bit (DTS Core: 5.1 / 48 kHz / 1509 kbps / 16-bit)

 
Скриншоты

Any questions - support@pro-jazz.com. Есть вопросы - support@pro-jazz.com
636
12:33