Поиск

2006 VA - New Orleans Concert - The Music of Americas Soul [BDrip 720p]

2006 VA - New Orleans Concert - The Music of Americas Soul [BDrip 720p]

Страна: USA
Жанр: jazz, blues, rock&roll
Продолжительность: 01:14:48
Год выпуска: 2006 г.
Лейбл: Concert Hot Spot
Описание: Фестиваль джаза в Новом Орлеане

Треклист:
01. It's Raining — Irma Thomas & Allen Toussaint
02. Dirty Man — Joss Stone
03. Amazing Grace — Aaron Neville
04. Tipitina — Allen Toussaint & Jon Cleary
05. Chapel Of Love — The Dixie Cups
06. Lawdy Miss Clawdy — Lloyd Price
07. Southern Nights — Allen Toussaint
08. What Is Success — Bonnie Raitt
09. Rip It Up — Ivan Neville & Earl Palmer
10. Barefootin — Walter Washington with Poppa Funk's Boys
11. Land of 1000 Dances — Walter Washington with Poppa Funk's Boys
12. I'm Ready — Keith Richards
13. Come On — Snooks Eaglin & George Porter Jr.
14. I Hear You Knockin — Snooks Eaglin
15. Ohh Wee Baby — Art Neville with Steve Jordan
16. Trick Bag — Aaron Neville
17. Yellow Moon — Neville Brothers Band
18. Fire On The Bayou — Neville Brothers Band
19. Hey Pocky Way — Ensemble
Bonus Tracks
1. Hey Little Girl — Henry Butler
2. Feet Can't Fail Me Now — Dirty Dozen Band
3. Bah Duey Duey — Big Sam's Funky Nation

Качество : BDRip
Формат: MKV
Видео кодек: H.264
Аудио кодек: AC3
Видео: MPEG-4 AVC, 7735 Кбит/с, 1280x720, 29.970 fps
Аудио: Английский (AC3, 6 ch, 640 Кбит/с)

 
Скриншоты

 
MediaInfo

General
Complete name: \VA.New.Orleans.Concert. The.Music.of.Americas.Soul.2006.x264.BDRip.720p.mkv
Format: Matroska
File size: 4.36 GiB
Duration: 1h 14mn
Overall bit rate: 8 340 Kbps
Movie name: sem-noconcert
Encoded date: UTC 2010-07-29 06:57:42
Writing application: mkvmerge v3.2.0 ('Beginnings') built on Feb 12 2010 16:46:17
Writing library: libebml v0.7.9 + libmatroska v0.8.1
Video
ID: 1
Format: AVC
Format/Info: Advanced Video Codec
Format profile: High@L4.1
Format settings, CABAC: Yes
Format settings, ReFrames: 5 frames
Format settings, GOP: M=6, N=24
Codec ID: V_MPEG4/ISO/AVC
Duration: 1h 14mn
Bit rate: 7 735 Kbps
Width: 1 280 pixels
Height: 720 pixels
Display aspect ratio: 16:9
Frame rate: 29.970 fps
Color space: YUV
Chroma subsampling: 4:2:0
Bit depth: 8 bits
Scan type: Progressive
Bits/(Pixel*Frame): 0.280
Stream size: 3.94 GiB (90%)
Writing library: x264 core 104 r1683 62997d6
Encoding settings: cabac=1 / ref=5 / deblock=1:0:0 / analyse=0x3:0x133 / me=umh / subme=7 / psy=1 / psy_rd=1.00:0.00 / mixed_ref=1 / me_range=16 / chroma_me=1 / trellis=1 / 8x8dct=1 / cqm=0 / deadzone=21,11 / fast_pskip=1 / chroma_qp_offset=-2 / threads=6 / sliced_threads=0 / nr=0 / decimate=1 / interlaced=0 / constrained_intra=0 / bframes=5 / b_pyramid=0 / b_adapt=1 / b_bias=0 / direct=1 / weightb=1 / open_gop=0 / weightp=2 / keyint=300 / keyint_min=30 / scenecut=40 / intra_refresh=0 / rc_lookahead=40 / rc=2pass / mbtree=1 / bitrate=7735 / ratetol=1.0 / qcomp=0.60 / qpmin=10 / qpmax=51 / qpstep=4 / cplxblur=20.0 / qblur=0.5 / vbv_maxrate=8000 / vbv_bufsize=25000 / ip_ratio=1.40 / aq=1:1.00 / nal_hrd=none
Audio
ID: 2
Format: AC-3
Format/Info: Audio Coding 3
Mode extension: CM (complete main)
Codec ID: A_AC3
Duration: 1h 14mn
Bit rate mode: Constant
Bit rate: 640 Kbps
Channel(s): 6 channels
Channel positions: Front: L C R, Side: L R, LFE
Sampling rate: 48.0 KHz
Bit depth: 16 bits
Stream size: 342 MiB (8%)
Menu
00:00:00.000: en:00:00:00.000
00:00:51.985: en:00:00:51.985
00:03:01.515: en:00:03:01.515
00:07:20.707: en:00:07:20.707
00:10:43.076: en:00:10:43.076
00:14:49.122: en:00:14:49.122
00:20:38.370: en:00:20:38.370
00:24:11.417: en:00:24:11.417
00:27:16.602: en:00:27:16.602
00:32:32.951: en:00:32:32.951
00:35:50.115: en:00:35:50.115
00:38:11.589: en:00:38:11.589
00:44:55.993: en:00:44:55.993
00:49:06.243: en:00:49:06.243
00:52:12.262: en:00:52:12.262
00:55:38.068: en:00:55:38.068
00:58:38.315: en:00:58:38.315
01:02:29.846: en:01:02:29.846
01:08:52.996: en:01:08:52.996
01:13:04.814: en:01:13:04.814
01:13:53.496: en:01:13:53.496

Скачивание доступно после регистрации!!
Приватный:
Нет (DHT включён)
Размер:
4.36 Гб (4,679,620,782 байт) » файлов: 2
Участники:
0 раздают, 0 качают (0 участников всего)
Внешние участники:
1 раздают, 0 качают (1 участников всего) [ Обновить ]
58
RSS
Нет комментариев. Ваш будет первым!