Вы используете незарегистрированную версию компонента "Вкладки"!

Поиск

2011 Harry Connick, Jr. - In Concert On Broadway [BDrip 720p]

2011 Harry Connick, Jr. - In Concert On Broadway [BDrip 720p]
Описание:

Продолжительность: 1h 46mn
Год выпуска: 2011
Треклист:
01. We Are In Love
02. The Way You Look Tonight
03. Besame Mucho
04. The Other Hours
05. Nowhere With Love
06. How Insensitive
07. Come By Me
08. My Time of Day / I've Never Been In Love Before
09. All The Way
10. Bayou Maharajah
11. Recipe For Love
12. Hear Me In The Harmony
13. Light The Way
14. Tug Boat
15. St. James Infirmary Blues
16. Take Her To The Mardi Gras
17. How Come You Do Me Like You Do?
18. Oh, Didn't He Ramble
19. Bourbon Street Parade
20. Mardi Gras In New Orleans


Качество: BDRip
Контейнер: MKV
Видео кодек: H.264
Аудио кодек: AC3
Видео: 1280x720 / 5 365 Kbps / 16:9 / 23.976 fps
Аудио: AC-3 / 448 Kbps / 6 channels / Front: L C R, Side: L R, LFE

 
MediaInfo

General
Unique ID: 177847653326822444260612504880173898014 (0x85CC364CB79F7FE9AF545ED34305591E)
Complete name: Harry Connick Jr In Concert on Broadway 2011 Blu-ray AVC 720p AC3 5.1 ELR.mkv
Format: Matroska
File size: 4.34 GiB
Duration: 1h 46mn
Overall bit rate: 5 814 Kbps
Movie name: Harry Connick Jr In Concert on Broadway 2011 Blu-ray AVC 720p AC3 5 1 ELR
Encoded date: UTC 2011-03-10 00:40:48
Writing application: mkvmerge v4.4.0 ('Die Wiederkehr') built on Oct 31 2010 21:52:48
Writing library: libebml v1.0.0 + libmatroska v1.0.0
Video
ID: 1
Format: AVC
Format/Info: Advanced Video Codec
Format profile: High@L4.1
Format settings, CABAC: Yes
Format settings, ReFrames: 3 frames
Format settings, GOP: N=1
Codec ID: V_MPEG4/ISO/AVC
Duration: 1h 46mn
Bit rate mode: Variable
Bit rate: 5 365 Kbps
Maximum bit rate: 25.0 Mbps
Width: 1 280 pixels
Height: 720 pixels
Display aspect ratio: 16:9
Frame rate: 23.976 fps
Color space: YUV
Chroma subsampling: 4:2:0
Bit depth: 8 bits
Scan type: Progressive
Bits/(Pixel*Frame): 0.243
Stream size: 3.92 GiB (90%)
Writing library: x264 core 112 r1867 22bfd31
Encoding settings: cabac=1 / ref=3 / deblock=1:0:0 / analyse=0x3:0x133 / me=umh / subme=7 / psy=1 / psy_rd=1.00:0.00 / mixed_ref=1 / me_range=16 / chroma_me=1 / trellis=1 / 8x8dct=1 / cqm=0 / deadzone=21,11 / fast_pskip=1 / chroma_qp_offset=-2 / threads=6 / sliced_threads=0 / nr=0 / decimate=1 / interlaced=0 / constrained_intra=0 / bframes=3 / b_pyramid=0 / b_adapt=1 / b_bias=0 / direct=1 / weightb=1 / open_gop=0 / weightp=2 / keyint=240 / keyint_min=24 / scenecut=40 / intra_refresh=0 / rc_lookahead=40 / rc=2pass / mbtree=1 / bitrate=5365 / ratetol=1.0 / qcomp=0.60 / qpmin=0 / qpmax=51 / qpstep=4 / cplxblur=20.0 / qblur=0.5 / vbv_maxrate=25000 / vbv_bufsize=25000 / nal_hrd=vbr / ip_ratio=1.40 / aq=1:1.00
Audio
ID: 2
Format: AC-3
Format/Info: Audio Coding 3
Mode extension: CM (complete main)
Codec ID: A_AC3
Duration: 1h 46mn
Bit rate mode: Constant
Bit rate: 448 Kbps
Channel(s): 6 channels
Channel positions: Front: L C R, Side: L R, LFE
Sampling rate: 48.0 KHz
Bit depth: 16 bits
Compression mode: Lossy
Stream size: 343 MiB (8%)
Language: English

Any questions - support@pro-jazz.com. Есть вопросы - support@pro-jazz.com
303
Нет комментариев. Ваш будет первым!