Поиск

(World Fusion, Post-Bop, Trombone Jazz) Conrad Herwig - Sketches of Spain Y Mas: The Latin Side of Miles Davis - 2006, APE (image+.cue), lossless

Треклист:
Conrad Herwig / Sketches of Spain Y Mas: The Latin Side of Miles Davis
Жанр: World Fusion, Post-Bop, Trombone Jazz
Страна-производитель диска: USA
Год издания диска: 2006
Издатель (лейбл): Half Note
Номер по каталогу: HN 4530
Страна: USA Oklahoma
Аудиокодек: APE (*.ape)
Тип рипа: image+.cue
Битрейт аудио: lossless
Продолжительность: 00:50:20
Источник (релизер): dreadbull
Наличие сканов в содержимом раздачи: да
Треклист:
01. Solar [13:04]
02. Seven Steps To Heaven [07:51]
03. Sketches Of Spain [24:58]
04. Petits Machins [04:25]
 
Лог создания рипа
EAC extraction logfile from 17. May 2011, 16:54 for CD
Conrad Herwig / Sketches of Spain Y Mas
Used drive : ASUS DRW-22B2L Adapter: 0 ID: 1
Read mode : Secure with NO C2, accurate stream, disable cache
Read offset correction : 6
Overread into Lead-In and Lead-Out : No
Used output format : Internal WAV Routines
44.100 Hz; 16 Bit; Stereo
Other options :
Fill up missing offset samples with silence : Yes
Delete leading and trailing silent blocks : No
Installed external ASPI interface
Range status and errors
Selected range
Filename D:\Donkey Files\Conrad Herwig - Sketches of Spain Y Mas. The Latin Side of Miles Davis (2006, Half Note) [eac-ape-scans] byDrBull\CDImage.wav
Peak level 98.8 %
Range quality 99.9 %
CRC 0BC3D2AE
Copy OK
No errors occured
End of status report
 
Содержание индексной карты (.CUE)
PERFORMER "Conrad Herwig"
TITLE "Sketches of Spain Y Mas"
FILE "CDImage.wav" WAVE
TRACK 01 AUDIO
TITLE "Solar"
PERFORMER "Conrad Herwig"
INDEX 01 00:00:00
TRACK 02 AUDIO
TITLE "Seven Steps To Heaven"
PERFORMER "Conrad Herwig"
INDEX 01 13:04:69
TRACK 03 AUDIO
TITLE "Sketches Of Spain"
PERFORMER "Conrad Herwig"
INDEX 01 20:55:70
TRACK 04 AUDIO
TITLE "Petits Machins"
PERFORMER "Conrad Herwig"
INDEX 01 45:54:46
 
Состав
Conrad Herwig - trombone;
Brian Lynch - trumpet;
Mario Rivera - baritone sax;
Dave Valentin - flute;
Paquito D'Rivera - alto sax, clarinet;
Edsel Gomez - piano;
John Benítez - bass;
Richie Flores - congas & percussion;
Robby Ameen - drums.
22:50
372
Нет комментариев. Ваш будет первым!