Поиск

(World Fusion, Post-Bop) Conrad Herwig - The Latin Side of Herbie Hancock - 2010, FLAC (tracks+.cue), lossless

Треклист:
Conrad Herwig / The Latin Side of Herbie Hancock
Жанр: World Fusion, Post-Bop
Год издания диска: 2010
Издатель (лейбл): HN 4544
Номер по каталогу: Half Note
Страна: USA Oklahoma
Аудиокодек: FLAC (*.flac)
Тип рипа: tracks+.cue
Битрейт аудио: lossless
Продолжительность: 01:06:12
Источник (релизер): Halowdance
Наличие сканов в содержимом раздачи: да
Треклист:
01. Oliloqui Valley [10:16]
02. One Finger Snap [05:33]
03. Butterfly [08:52]
04. The Sorcerer [06:58]
05. Actual Proof [09:22]
06. Maiden Voyage [08:42]
07. Cantaloupe Island [09:30]
08. Watermelon Man [06:55]
 
Лог создания рипа
X Lossless Decoder version 20100926 (123.1)
XLD extraction logfile from 2010-10-03 06:17:08 +0200
Conrad Herwig / The Latin Side Of Herbie Hancock
Used drive : MATSHITA DVD-R UJ-85J (revision FBZ8)
Use cdparanoia mode : YES (CDParanoia III 10.2 engine)
Disable audio cache : OK for the drive with cache less than 2750KB
Make use of C2 pointers : NO
Read offset correction : 102
Max retry count : 100
Gap status : Analyzed, Appended
TOC of the extracted CD
Track | Start | Length | Start sector | End sector
---------------------------------------------------------
1 | 00:00:00 | 10:16:67 | 0 | 46266
2 | 10:16:67 | 05:33:04 | 46267 | 71245
3 | 15:49:71 | 08:52:43 | 71246 | 111188
4 | 24:42:39 | 06:58:46 | 111189 | 142584
5 | 31:41:10 | 09:22:27 | 142585 | 184761
6 | 41:03:37 | 08:42:23 | 184762 | 223934
7 | 49:45:60 | 09:30:64 | 223935 | 266748
8 | 59:16:49 | 06:55:60 | 266749 | 297933
Track 01
Filename : /01 - Oliloqui Valley.flac
Pre-gap length : 00:02:00
CRC32 hash (test run) : 0CBCCA53
CRC32 hash : 0CBCCA53
CRC32 hash (skip zero) : 2C783204
AccurateRip signature : 542B1430
->Track not present in AccurateRip database.
Statistics
Read error : 0
Skipped (treated as error) : 0
Edge jitter error (maybe fixed) : 0
Atom jitter error (maybe fixed) : 0
Drift error (maybe fixed) : 0
Dropped bytes error (maybe fixed) : 0
Duplicated bytes error (maybe fixed) : 0
Inconsistency in error sectors : 0
Track 02
Filename : /02 - One Finger Snap.flac
CRC32 hash (test run) : 4544D83E
CRC32 hash : 4544D83E
CRC32 hash (skip zero) : 81559AB4
AccurateRip signature : 1D648FB8
->Track not present in AccurateRip database.
Statistics
Read error : 0
Skipped (treated as error) : 0
Edge jitter error (maybe fixed) : 0
Atom jitter error (maybe fixed) : 0
Drift error (maybe fixed) : 0
Dropped bytes error (maybe fixed) : 0
Duplicated bytes error (maybe fixed) : 0
Inconsistency in error sectors : 0
Track 03
Filename : /03 - Butterfly.flac
CRC32 hash (test run) : DC6035FC
CRC32 hash : DC6035FC
CRC32 hash (skip zero) : CCE539CB
AccurateRip signature : A05DCB17
->Track not present in AccurateRip database.
Statistics
Read error : 0
Skipped (treated as error) : 0
Edge jitter error (maybe fixed) : 0
Atom jitter error (maybe fixed) : 0
Drift error (maybe fixed) : 0
Dropped bytes error (maybe fixed) : 0
Duplicated bytes error (maybe fixed) : 0
Inconsistency in error sectors : 0
Track 04
Filename : /04 - The Sorcerer.flac
CRC32 hash (test run) : B426BD8C
CRC32 hash : B426BD8C
CRC32 hash (skip zero) : D99BD721
AccurateRip signature : 80582B9A
->Track not present in AccurateRip database.
Statistics
Read error : 0
Skipped (treated as error) : 0
Edge jitter error (maybe fixed) : 0
Atom jitter error (maybe fixed) : 0
Drift error (maybe fixed) : 0
Dropped bytes error (maybe fixed) : 0
Duplicated bytes error (maybe fixed) : 0
Inconsistency in error sectors : 0
Track 05
Filename : /05 - Actual Proof.flac
CRC32 hash (test run) : AF8B25CC
CRC32 hash : AF8B25CC
CRC32 hash (skip zero) : D37982F1
AccurateRip signature : ADDA0901
->Track not present in AccurateRip database.
Statistics
Read error : 0
Skipped (treated as error) : 0
Edge jitter error (maybe fixed) : 0
Atom jitter error (maybe fixed) : 0
Drift error (maybe fixed) : 0
Dropped bytes error (maybe fixed) : 0
Duplicated bytes error (maybe fixed) : 0
Inconsistency in error sectors : 0
Track 06
Filename : /06 - Maiden Voyage.flac
CRC32 hash (test run) : 48BB3986
CRC32 hash : 48BB3986
CRC32 hash (skip zero) : 6E8389E0
AccurateRip signature : 21B0A72E
->Track not present in AccurateRip database.
Statistics
Read error : 0
Skipped (treated as error) : 0
Edge jitter error (maybe fixed) : 0
Atom jitter error (maybe fixed) : 0
Drift error (maybe fixed) : 0
Dropped bytes error (maybe fixed) : 0
Duplicated bytes error (maybe fixed) : 0
Inconsistency in error sectors : 0
Track 07
Filename : /07 - Cantaloupe Island.flac
CRC32 hash (test run) : 9E34A13E
CRC32 hash : 9E34A13E
CRC32 hash (skip zero) : DE700387
AccurateRip signature : A3A46074
->Track not present in AccurateRip database.
Statistics
Read error : 0
Skipped (treated as error) : 0
Edge jitter error (maybe fixed) : 0
Atom jitter error (maybe fixed) : 0
Drift error (maybe fixed) : 0
Dropped bytes error (maybe fixed) : 0
Duplicated bytes error (maybe fixed) : 0
Inconsistency in error sectors : 0
Track 08
Filename : /08 - Watermelon Man.flac
CRC32 hash (test run) : A0DC6A58
CRC32 hash : A0DC6A58
CRC32 hash (skip zero) : 29EAB1FD
AccurateRip signature : 0947BCDE
->Track not present in AccurateRip database.
Statistics
Read error : 0
Skipped (treated as error) : 0
Edge jitter error (maybe fixed) : 0
Atom jitter error (maybe fixed) : 0
Drift error (maybe fixed) : 0
Dropped bytes error (maybe fixed) : 0
Duplicated bytes error (maybe fixed) : 0
Inconsistency in error sectors : 0
No errors occurred
End of status report
 
Содержание индексной карты (.CUE)
TITLE "The Latin Side of Herbie Hancock"
PERFORMER "Conrad Herwig"
REM GENRE "Jazz"
REM DATE "2010-08-27"
REM DISCNUMBER 1
REM TOTALDISCS 1
REM DISCID 7E0F8408
FILE "01 - Oliloqui Valley.wav" WAVE
TRACK 01 AUDIO
TITLE "Oliloqui Valley"
SONGWRITER "Herbie Hancock"
INDEX 01 00:00:00
FILE "02 - One Finger Snap.wav" WAVE
TRACK 02 AUDIO
TITLE "One Finger Snap"
SONGWRITER "Herbie Hancock"
INDEX 01 00:00:00
FILE "03 - Butterfly.wav" WAVE
TRACK 03 AUDIO
TITLE "Butterfly"
SONGWRITER "Herbie Hancock"
INDEX 01 00:00:00
FILE "04 - The Sorcerer.wav" WAVE
TRACK 04 AUDIO
TITLE "The Sorcerer"
SONGWRITER "Herbie Hancock"
INDEX 01 00:00:00
FILE "05 - Actual Proof.wav" WAVE
TRACK 05 AUDIO
TITLE "Actual Proof"
SONGWRITER "Herbie Hancock"
INDEX 01 00:00:00
FILE "06 - Maiden Voyage.wav" WAVE
TRACK 06 AUDIO
TITLE "Maiden Voyage"
SONGWRITER "Herbie Hancock"
INDEX 01 00:00:00
FILE "07 - Cantaloupe Island.wav" WAVE
TRACK 07 AUDIO
TITLE "Cantaloupe Island"
SONGWRITER "Herbie Hancock"
INDEX 01 00:00:00
FILE "08 - Watermelon Man.wav" WAVE
TRACK 08 AUDIO
TITLE "Watermelon Man"
SONGWRITER "Herbie Hancock"
INDEX 01 00:00:00
 
Лог проверки качества
-----------------------
DON'T MODIFY THIS FILE
-----------------------
PERFORMER: auCDtect Task Manager, ver. 1.5.1RC6 build 1.5.1.7
Copyright (c) 2008-2010 y-soft. All rights reserved
http://y-soft.org
ANALYZER: auCDtect: CD records authenticity detector, version 0.8.2
Copyright (c) 2004 Oleg Berngardt. All rights reserved.
Copyright (c) 2004 Alexander Djourik. All rights reserved.
FILE: 08 - Watermelon Man.flac
Size: 46456684 Hash: B775AA4A05AFC661664418531FB6390E Accuracy: -m0
Conclusion: CDDA 100%
Signature: 6E47225DC1DAB9CE8869AA7571DA9628AA807E07
FILE: 07 - Cantaloupe Island.flac
Size: 63342802 Hash: 1ACB2CBF06181E5A053FD338035A316B Accuracy: -m0
Conclusion: CDDA 100%
Signature: B4372A988A78E9AC6D7BE6986208495466A23A0B
FILE: 06 - Maiden Voyage.flac
Size: 51725503 Hash: 1430C5FAD6CD998722CC54710293E440 Accuracy: -m0
Conclusion: CDDA 100%
Signature: CA2DA9B73F949FFB7D688ECD8E8D0CC87CB7FDC5
FILE: 05 - Actual Proof.flac
Size: 63910794 Hash: A7A8361E2F83BB29D69EB2D3B9D90F81 Accuracy: -m0
Conclusion: CDDA 100%
Signature: 63A46B990A3360B8DEF83391678D4D235040862A
FILE: 04 - The Sorcerer.flac
Size: 46586510 Hash: 1917FB5C465199D00A4D9446C0CD80FF Accuracy: -m0
Conclusion: CDDA 100%
Signature: D0CD15245E3B2D25AE35006CB7388A06D88BF308
FILE: 03 - Butterfly.flac
Size: 53706366 Hash: 92C93FCE5D4666CEA835673537424D5D Accuracy: -m0
Conclusion: CDDA 100%
Signature: C8F429A45C12AA45571A5B833747125BBD5A58A0
FILE: 02 - One Finger Snap.flac
Size: 39304777 Hash: AD03D1384E41876C770A59002E20CF7E Accuracy: -m0
Conclusion: CDDA 100%
Signature: 5D2A7118B2D10F126066FABD99BD37A1E0633BA1
FILE: 01 - Oliloqui Valley.flac
Size: 69047685 Hash: 189ADF8AADF1AC09CA49D7085F8B6523 Accuracy: -m0
Conclusion: CDDA 100%
Signature: B7FF01C68602899136271079CB7663B88D11E8E6
 
Состав
Conrad Herwig—Trombone
Craig Handy—Saxophones, Flute, Bass Clarinet
Mike Rodriquez—Trumpet
Bill O'Connell—Piano
Ruben Rodriguez—Bass
Robby Ameen—Drums
Pedro Martinez—Percussion
Special Guests:
Eddie Palmieri—Piano
Randy Brecker—Trumpet
00:17
393
Нет комментариев. Ваш будет первым!