Поиск

(World Fusion, Hard Bop) Ahmed Abdul-Malik - Jazz Sounds of Africa - 1962, FLAC (tracks+.cue), lossless

(World Fusion, Hard Bop) Ahmed Abdul-Malik - Jazz Sounds of Africa - 1962, FLAC (tracks+.cue), lossless
Треклист:
Ahmed Abdul-Malik - Jazz Sounds of Africa
Жанр: World Fusion, Hard Bop
Год выпуска диска: 2003
Производитель диска: Prestige (242792)
Аудио кодек: FLAC
Тип рипа: tracks+.cue
Битрейт аудио: lossless
Продолжительность: 69:09
Трэклист:
01. Nights on Saturn
02. The Hustlers
03. Oud Blues
04. La Ibkey
05. Don't Blame Me
06. Hannibal's Carnivals
07. Wakida Hena
08. African Bossa Nova
09. Nadusilma
10. Out of Nowhere
11. Communication
12. Suffering
Recorded by Rudy Van Gelder at Van Gelder Studio, Englewood Cliffs, NJ; May 23, 1961 (#1-6,10) and August 22, 1962 (other selections).
 
Review by Ken Dryden
Jazz Sounds of Africa compiles the complete contents of two early New Jazz LPs by Ahmed Abdul-Malik, which were originally issued as The Music of Ahmed Abdul-Malik and Sounds of Africa. The music on this reissue is simply captivating, as the brilliant bassist and oud player of Sudanese descent blends elements of jazz with that of Middle Eastern and African music. While the names of several of the contributing musicians are likely to be unfamiliar to many jazz fans, except for Andrew Cyrille and Tommy Turrentine, the music proves to be fascinating throughout both sessions. Any fan of John Coltrane's composition "India," which was written and performed around the same time frame, will delight in the hypnotic opener, "Nights on Saturn," with an eerie solo by an unidentified Korean reed instrument played by Bilal Abdurrahman. The leader overdubs on oud (the Middle Eastern ancestor of the mandolin) on several tracks, as well as demonstrates his fine arco bass on the old standard "Don't Blame Me." Tommy Turrentine, whose career was unjustly overlooked because he retired from music prematurely, is a compelling soloist on the 1961 session. The latter session is far more percussive, with Abdul-Malik utilizing a larger ensemble. The highlight of this date is the lengthy exploration of the infectious original "Communication," which almost conjures up an African tribal chant with Richard Williams' trumpet as the lead voice, with the percussionists eventually taking over as they play off one another with vocal encouragement from one of the players. The songs on this CD compilation of the two-decades-old albums have stood the test of time very well.
 
EAC.log
Exact Audio Copy V0.99 prebeta 4 from 23. January 2008
EAC extraction logfile from 20. February 2009, 0:52
Ahmed Abdul-Malik / Jazz Sounds of Africa
Used drive : TSSTcorpCDDVDW SH-S223Q Adapter: 2 ID: 1
Read mode : Secure
Utilize accurate stream : Yes
Defeat audio cache : Yes
Make use of C2 pointers : No
Read offset correction : 6
Overread into Lead-In and Lead-Out : No
Fill up missing offset samples with silence : Yes
Delete leading and trailing silent blocks : No
Null samples used in CRC calculations : Yes
Used interface : Installed external ASPI interface
Gap handling : Appended to previous track
Used output format : User Defined Encoder
Selected bitrate : 320 kBit/s
Quality : High
Add ID3 tag : No
Command line compressor : C:\Program Files (x86)\Exact Audio Copy\flac.exe
Additional command line options : -8 -V -T "ARTIST=%a" -T "TITLE=%t" -T "ALBUM=%g" -T "DATE=%y" -T "TRACKNUMBER=%n" -T "GENRE=%m" -T "COMMENT=EAC FLAC -8" %s
TOC of the extracted CD
Track | Start | Length | Start sector | End sector
---------------------------------------------------------
1 | 0:00.00 | 7:34.72 | 0 | 34121
2 | 7:34.72 | 5:34.18 | 34122 | 59189
3 | 13:09.15 | 4:09.60 | 59190 | 77924
4 | 17:19.00 | 5:52.67 | 77925 | 104391
5 | 23:11.67 | 7:28.18 | 104392 | 138009
6 | 30:40.10 | 4:40.30 | 138010 | 159039
7 | 35:20.40 | 3:53.20 | 159040 | 176534
8 | 39:13.60 | 6:00.07 | 176535 | 203541
9 | 45:13.67 | 4:00.20 | 203542 | 221561
10 | 49:14.12 | 5:00.35 | 221562 | 244096
11 | 54:14.47 | 9:46.03 | 244097 | 288049
12 | 64:00.50 | 5:13.02 | 288050 | 311526
Track 1
Filename C:\Audio\Ahmed Abdul-Malik - Jazz Sounds of Africa (1961-1962) [FLAC] {2003}\01 - Nights on Saturn.wav
Pre-gap length 0:00:02.00
Peak level 100.0 %
Track quality 100.0 %
Test CRC 049FC9F1
Copy CRC 049FC9F1
Track not present in AccurateRip database
Copy OK
Track 2
Filename C:\Audio\Ahmed Abdul-Malik - Jazz Sounds of Africa (1961-1962) [FLAC] {2003}\02 - The Hustlers.wav
Pre-gap length 0:00:03.73
Peak level 98.4 %
Track quality 100.0 %
Test CRC 1A11FA68
Copy CRC 1A11FA68
Track not present in AccurateRip database
Copy OK
Track 3
Filename C:\Audio\Ahmed Abdul-Malik - Jazz Sounds of Africa (1961-1962) [FLAC] {2003}\03 - Oud Blues.wav
Pre-gap length 0:00:03.33
Peak level 95.6 %
Track quality 100.0 %
Test CRC 1F4A313B
Copy CRC 1F4A313B
Track not present in AccurateRip database
Copy OK
Track 4
Filename C:\Audio\Ahmed Abdul-Malik - Jazz Sounds of Africa (1961-1962) [FLAC] {2003}\04 - La Ibkey.wav
Pre-gap length 0:00:03.66
Peak level 98.4 %
Track quality 100.0 %
Test CRC DFD76A7C
Copy CRC DFD76A7C
Track not present in AccurateRip database
Copy OK
Track 5
Filename C:\Audio\Ahmed Abdul-Malik - Jazz Sounds of Africa (1961-1962) [FLAC] {2003}\05 - Don't Blame Me.wav
Pre-gap length 0:00:03.00
Peak level 92.6 %
Track quality 100.0 %
Test CRC B87E2426
Copy CRC B87E2426
Track not present in AccurateRip database
Copy OK
Track 6
Filename C:\Audio\Ahmed Abdul-Malik - Jazz Sounds of Africa (1961-1962) [FLAC] {2003}\06 - Hannibal's Carnivals.wav
Pre-gap length 0:00:02.86
Peak level 97.8 %
Track quality 100.0 %
Test CRC 24FA769C
Copy CRC 24FA769C
Track not present in AccurateRip database
Copy OK
Track 7
Filename C:\Audio\Ahmed Abdul-Malik - Jazz Sounds of Africa (1961-1962) [FLAC] {2003}\07 - Wakida Hena.wav
Pre-gap length 0:00:02.64
Peak level 97.9 %
Track quality 100.0 %
Test CRC 46C84CDD
Copy CRC 46C84CDD
Track not present in AccurateRip database
Copy OK
Track 8
Filename C:\Audio\Ahmed Abdul-Malik - Jazz Sounds of Africa (1961-1962) [FLAC] {2003}\08 - African Bossa Nova.wav
Pre-gap length 0:00:04.44
Peak level 97.7 %
Track quality 100.0 %
Test CRC 6B7DC389
Copy CRC 6B7DC389
Track not present in AccurateRip database
Copy OK
Track 9
Filename C:\Audio\Ahmed Abdul-Malik - Jazz Sounds of Africa (1961-1962) [FLAC] {2003}\09 - Nadusilma.wav
Pre-gap length 0:00:02.33
Peak level 92.2 %
Track quality 100.0 %
Test CRC FDF1F851
Copy CRC FDF1F851
Track not present in AccurateRip database
Copy OK
Track 10
Filename C:\Audio\Ahmed Abdul-Malik - Jazz Sounds of Africa (1961-1962) [FLAC] {2003}\10 - Out of Nowhere.wav
Pre-gap length 0:00:04.46
Peak level 92.6 %
Track quality 100.0 %
Test CRC 8356C82C
Copy CRC 8356C82C
Track not present in AccurateRip database
Copy OK
Track 11
Filename C:\Audio\Ahmed Abdul-Malik - Jazz Sounds of Africa (1961-1962) [FLAC] {2003}\11 - Communication.wav
Pre-gap length 0:00:03.42
Peak level 100.0 %
Track quality 100.0 %
Test CRC 16FEF16E
Copy CRC 16FEF16E
Track not present in AccurateRip database
Copy OK
Track 12
Filename C:\Audio\Ahmed Abdul-Malik - Jazz Sounds of Africa (1961-1962) [FLAC] {2003}\12 - Suffering.wav
Pre-gap length 0:00:03.10
Peak level 98.1 %
Track quality 100.0 %
Test CRC 05CDF408
Copy CRC 05CDF408
Track not present in AccurateRip database
Copy OK
None of the tracks are present in the AccurateRip database
No errors occurred
End of status report
Обложки есть. Благодарности за релиз - Mazeppa (hqshare).
По всем вопросам пишите личное сообщение пользователю M0p94ok.
05:35
394
Нет комментариев. Ваш будет первым!