Поиск

(Vocal Jazz, Soul, Alternative) [CD] Halie Loren - From the Wild Sky - 2018, FLAC (tracks+.cue), lossless

(Vocal Jazz, Soul, Alternative) [CD] Halie Loren - From the Wild Sky - 2018, FLAC (tracks+.cue), lossless
Треклист:
Halie Loren - From the Wild Sky
Жанр: Vocal Jazz, Soul, Alternative
Носитель: CD
Страна-производитель диска (релиза): Канада
Год издания: 2018
Издатель (лейбл): Justin Time Records
Номер по каталогу: JTR 8611-2
Аудиокодек: FLAC (*.flac)
Тип рипа: tracks+.cue
Битрейт аудио: lossless
Продолжительность: 42:28
Источник (релизер): shitlipsdotbiz
Наличие сканов в содержимом раздачи: сетевые
Треклист:
01. Roots (3:00)
02. How to Dismantle a Life (3:16)
03. Wild Birds (4:15)
04. Paper Man (4:05)
05. I Can't Land (4:22)
06. Well-Loved Woman (3:08)
07. Painter's Song (4:37)
08. August Moon (4:16)
09. Noah (3:32)
10. Wisdom (4:06)
11. A Mi Manera (3:51)
Состав:
Halie Loren - vocals, background vocals, piano, ukulele, percussion, harmonium
Troy Miller - drums, percussion, piano, harmonium, ukulele, keyboards
Femi Temowo - guitars, ukulele
Michael Olatuja - bass
Ben Williams - bass
Becca Stevens - guest vocal, charango (#3)
Nathan Schram - viola
Andrew Yee - cello
Recorded at Spark Studio (London, UK), Figure8 Studio (Brooklyn, NY), and Drawing the Sky Studio (Eugene, OR).
 
Лог создания рипа
Exact Audio Copy V1.3 from 2. September 2016
EAC extraction logfile from 11. June 2018, 22:51
Halie Loren / From the Wild Sky
Used drive : hp CDDVDW SH-216AL Adapter: 1 ID: 0
Read mode : Secure
Utilize accurate stream : Yes
Defeat audio cache : Yes
Make use of C2 pointers : No
Read offset correction : 6
Overread into Lead-In and Lead-Out : No
Fill up missing offset samples with silence : Yes
Delete leading and trailing silent blocks : No
Null samples used in CRC calculations : Yes
Used interface : Native Win32 interface for Win NT & 2000
Gap handling : Appended to previous track
Used output format : User Defined Encoder
Selected bitrate : 1024 kBit/s
Quality : High
Add ID3 tag : No
Command line compressor : C:\Program Files (x86)\Exact Audio Copy\Flac\flac.exe
Additional command line options : -8 -e -p -V -T "ARTIST=%artist%" -T "TITLE=%title%" -T "ALBUM=%albumtitle%" -T "DATE=%year%" -T "TRACKNUMBER=%tracknr%" -T "GENRE=%genre%" -T "PERFORMER=%albuminterpret%" -T "COMPOSER=%composer%" %haslyrics%--tag-from-file=LYRICS="%lyricsfile%"%haslyrics% -T "ALBUMARTIST=%albumartist%" -T "DISCNUMBER=%cdnumber%" -T "TOTALDISCS=%totalcds%" -T "TOTALTRACKS=%numtracks%" -T "COMMENT=%comment%" %source% -o %dest%
TOC of the extracted CD
Track | Start | Length | Start sector | End sector
---------------------------------------------------------
1 | 0:00.00 | 3:00.12 | 0 | 13511
2 | 3:00.12 | 3:15.55 | 13512 | 28191
3 | 6:15.67 | 4:14.52 | 28192 | 47293
4 | 10:30.44 | 4:04.58 | 47294 | 65651
5 | 14:35.27 | 4:21.56 | 65652 | 85282
6 | 18:57.08 | 3:07.54 | 85283 | 99361
7 | 22:04.62 | 4:36.48 | 99362 | 120109
8 | 26:41.35 | 4:15.65 | 120110 | 139299
9 | 30:57.25 | 3:31.73 | 139300 | 155197
10 | 34:29.23 | 4:06.04 | 155198 | 173651
11 | 38:35.27 | 3:50.41 | 173652 | 190942
Track 1
Filename C:\Rips v4\Halie Loren - From the Wild Sky {2018} [JTR8611-2] (FLAC)\01 - Roots.wav
Pre-gap length 0:00:02.00
Peak level 95.6 %
Extraction speed 4.0 X
Track quality 100.0 %
Test CRC 5277F4C5
Copy CRC 5277F4C5
Track not present in AccurateRip database
Copy OK
Track 2
Filename C:\Rips v4\Halie Loren - From the Wild Sky {2018} [JTR8611-2] (FLAC)\02 - How To Dismantle A Life.wav
Peak level 98.0 %
Extraction speed 4.4 X
Track quality 100.0 %
Test CRC F4241737
Copy CRC F4241737
Track not present in AccurateRip database
Copy OK
Track 3
Filename C:\Rips v4\Halie Loren - From the Wild Sky {2018} [JTR8611-2] (FLAC)\03 - Wild Birds.wav
Peak level 96.6 %
Extraction speed 5.0 X
Track quality 100.0 %
Test CRC E2D3ED78
Copy CRC E2D3ED78
Track not present in AccurateRip database
Copy OK
Track 4
Filename C:\Rips v4\Halie Loren - From the Wild Sky {2018} [JTR8611-2] (FLAC)\04 - Paper Man.wav
Peak level 94.6 %
Extraction speed 5.4 X
Track quality 100.0 %
Test CRC 362DC51D
Copy CRC 362DC51D
Track not present in AccurateRip database
Copy OK
Track 5
Filename C:\Rips v4\Halie Loren - From the Wild Sky {2018} [JTR8611-2] (FLAC)\05 - I Can't Land.wav
Peak level 92.6 %
Extraction speed 5.8 X
Track quality 100.0 %
Test CRC 926EACA4
Copy CRC 926EACA4
Track not present in AccurateRip database
Copy OK
Track 6
Filename C:\Rips v4\Halie Loren - From the Wild Sky {2018} [JTR8611-2] (FLAC)\06 - Well - Loved Woman.wav
Peak level 95.0 %
Extraction speed 5.8 X
Track quality 100.0 %
Test CRC 1842C156
Copy CRC 1842C156
Track not present in AccurateRip database
Copy OK
Track 7
Filename C:\Rips v4\Halie Loren - From the Wild Sky {2018} [JTR8611-2] (FLAC)\07 - Painter's Song.wav
Peak level 92.7 %
Extraction speed 6.5 X
Track quality 100.0 %
Test CRC 1AFDCABF
Copy CRC 1AFDCABF
Track not present in AccurateRip database
Copy OK
Track 8
Filename C:\Rips v4\Halie Loren - From the Wild Sky {2018} [JTR8611-2] (FLAC)\08 - August Moon.wav
Peak level 93.1 %
Extraction speed 6.7 X
Track quality 100.0 %
Test CRC 07B48BB8
Copy CRC 07B48BB8
Track not present in AccurateRip database
Copy OK
Track 9
Filename C:\Rips v4\Halie Loren - From the Wild Sky {2018} [JTR8611-2] (FLAC)\09 - Noah.wav
Peak level 91.3 %
Extraction speed 6.8 X
Track quality 100.0 %
Test CRC 79218767
Copy CRC 79218767
Track not present in AccurateRip database
Copy OK
Track 10
Filename C:\Rips v4\Halie Loren - From the Wild Sky {2018} [JTR8611-2] (FLAC)\10 - Wisdom.wav
Peak level 93.0 %
Extraction speed 7.1 X
Track quality 100.0 %
Test CRC EFEA003A
Copy CRC EFEA003A
Track not present in AccurateRip database
Copy OK
Track 11
Filename C:\Rips v4\Halie Loren - From the Wild Sky {2018} [JTR8611-2] (FLAC)\11 - A Mi Manera.wav
Peak level 91.3 %
Extraction speed 7.3 X
Track quality 100.0 %
Test CRC 08D04EF0
Copy CRC 08D04EF0
Track not present in AccurateRip database
Copy OK
None of the tracks are present in the AccurateRip database
No errors occurred
End of status report
---- CUETools DB Plugin V2.1.6
[CTDB TOCID: jpe8qdVKK9OQy7GmkK24y8fYh5U-] found
Submit result: jpe8qdVKK9OQy7GmkK24y8fYh5U- has been confirmed
Track | CTDB Status
1 | (3/3) Accurately ripped
2 | (3/3) Accurately ripped
3 | (3/3) Accurately ripped
4 | (3/3) Accurately ripped
5 | (3/3) Accurately ripped
6 | (3/3) Accurately ripped
7 | (3/3) Accurately ripped
8 | (3/3) Accurately ripped
9 | (3/3) Accurately ripped
10 | (3/3) Accurately ripped
11 | (3/3) Accurately ripped
==== Log checksum DA945FDFA3294B861C5D3BD5A78C668FB67390A4E5757FE8841D550C51CA76BA ====
 
Содержание индексной карты (.CUE)
REM GENRE Jazz
REM DATE 2018
REM DISCID 9109F10B
REM COMMENT "ExactAudioCopy v1.3"
PERFORMER "Halie Loren"
TITLE "From the Wild Sky"
FILE "01 - Roots.wav" WAVE
TRACK 01 AUDIO
TITLE "Roots"
PERFORMER "Halie Loren"
ISRC CAJ221800020
INDEX 01 00:00:00
FILE "02 - How to Dismantle a Life.wav" WAVE
TRACK 02 AUDIO
TITLE "How to Dismantle a Life"
PERFORMER "Halie Loren"
ISRC CAJ221800021
INDEX 01 00:00:00
FILE "03 - Wild Birds.wav" WAVE
TRACK 03 AUDIO
TITLE "Wild Birds"
PERFORMER "Halie Loren"
ISRC CAJ221800022
INDEX 01 00:00:00
FILE "04 - Paper Man.wav" WAVE
TRACK 04 AUDIO
TITLE "Paper Man"
PERFORMER "Halie Loren"
ISRC CAJ221800023
INDEX 01 00:00:00
FILE "05 - I Can't Land.wav" WAVE
TRACK 05 AUDIO
TITLE "I Can't Land"
PERFORMER "Halie Loren"
ISRC CAJ221800024
INDEX 01 00:00:00
FILE "06 - Well-Loved Woman.wav" WAVE
TRACK 06 AUDIO
TITLE "Well-Loved Woman"
PERFORMER "Halie Loren"
ISRC CAJ221800025
INDEX 01 00:00:00
FILE "07 - Painter's Song.wav" WAVE
TRACK 07 AUDIO
TITLE "Painter's Song"
PERFORMER "Halie Loren"
ISRC CAJ221800026
INDEX 01 00:00:00
FILE "08 - August Moon.wav" WAVE
TRACK 08 AUDIO
TITLE "August Moon"
PERFORMER "Halie Loren"
ISRC CAJ221800026
INDEX 01 00:00:00
FILE "09 - Noah.wav" WAVE
TRACK 09 AUDIO
TITLE "Noah"
PERFORMER "Halie Loren"
ISRC CAJ221800028
INDEX 01 00:00:00
FILE "10 - Wisdom.wav" WAVE
TRACK 10 AUDIO
TITLE "Wisdom"
PERFORMER "Halie Loren"
ISRC CAJ221800029
INDEX 01 00:00:00
FILE "11 - A Mi Manera.wav" WAVE
TRACK 11 AUDIO
TITLE "A Mi Manera"
PERFORMER "Halie Loren"
ISRC CAJ221800030
INDEX 01 00:00:00
 
Отчет CUETools
[CUETools log; Date: 10.07.2018 18:28:07; Version: 2.1.5]
[CTDB TOCID: jpe8qdVKK9OQy7GmkK24y8fYh5U-] found.
Track | CTDB Status
1 | (8/8) Accurately ripped
2 | (8/8) Accurately ripped
3 | (8/8) Accurately ripped
4 | (8/8) Accurately ripped
5 | (8/8) Accurately ripped
6 | (8/8) Accurately ripped
7 | (8/8) Accurately ripped
8 | (8/8) Accurately ripped
9 | (8/8) Accurately ripped
10 | (8/8) Accurately ripped
11 | (8/8) Accurately ripped
[AccurateRip ID: 00111122-00959a1d-9109f10b] found.
Track [ CRC | V2 ] Status
01 [3403b04f|2239d381] (0+2/2) Accurately ripped
02 [b319adfc|28121f58] (0+2/2) Accurately ripped
03 [173b7587|2c42b367] (0+2/2) Accurately ripped
04 [005db630|1eea4291] (0+2/2) Accurately ripped
05 [5963f5b0|9b5ba8f8] (0+3/3) Accurately ripped
06 [11f219fa|1e2fa069] (0+3/3) Accurately ripped
07 [929fbcfb|dabb7ea7] (0+3/3) Accurately ripped
08 [d3aede62|d2a13113] (0+3/3) Accurately ripped
09 [1d540ae4|6a457e68] (0+3/3) Accurately ripped
10 [8a414d7f|f8cc7e03] (0+3/3) Accurately ripped
11 [2300f294|ed1f166b] (0+3/3) Accurately ripped
Track Peak [ CRC32 ] [W/O NULL] [ LOG ]
-- 98,0 [02E51738] [31FA8785]
01 95,6 [5277F4C5] [4E175B89] CRC32
02 98,0 [F4241737] [056EAF96] CRC32
03 96,6 [E2D3ED78] [647724E1] CRC32
04 94,6 [362DC51D] [A30F4459] CRC32
05 92,6 [926EACA4] [EAC879AC] CRC32
06 95,0 [1842C156] [2C1B8A45] CRC32
07 92,7 [1AFDCABF] [A3F6ECE2] CRC32
08 93,1 [07B48BB8] [695FC259] CRC32
09 91,3 [79218767] [BC3CAC1A] CRC32
10 93,0 [EFEA003A] [EC55DC58] CRC32
11 91,3 [08D04EF0] [97AE1AEE] CRC32
 
Об альбоме (сборнике)
"From the Wild Sky" captures Loren soaring -- confident, embattled and empowered, ever attuned to the healing powers of music in these troubled times. Each song tells of a journey, and the sum total of the album itself represents a voyage that beckons the listener to travel along, through fragility and conflict into a tenuous but graceful acceptance, grounded in wisdom and celebrated with stunning artistry.
Loren's recording career spans over a decade, with nine internationally-acclaimed self-produced solo albums. This release, Loren's tenth, turns the spotlight toward her songwriting, showcasing her multi-faceted artistry in a brand new light. "From the Wild Sky", with 10 original songs and one shimmery rendition of Roberto Livi's "A Mi Manera", features a rich sonic tapestry gorgeously woven together by producer and drummer Troy Miller (Jamie Cullum, Gregory Porter, Laura Mvula) in collaboration with an international musical cast including guitarist Femi Temowo, bassists Michael Olatuja and Ben Williams, vocalist/charanguista player Becca Stevens, violist Nathan Schram, and cellist Andrew Yee. Loren features on not only lead vocals, but also a rich array of background vocal layers, piano, and other instrumentation.
Recorded and produced in London and Brooklyn, this creative undertaking was made possible through the support of Halie Loren's fans around the world via a successfully-funded Kickstarter campaign in September 2017.
Приватный:
Нет (DHT включён)
Размер:
235.55 Мб (246,994,663 байт) » файлов: 19
Участники:
0 раздают, 0 качают (0 участников всего)
Внешние участники:
--- [ Обновить ]
07:39
2
Нет комментариев. Ваш будет первым!