Поиск

(Vocal Jazz) Etta Jones — From The Heart (1962) — 1999, FLAC (tracks+.cue) lossless

Треклист:
Etta Jones — From The Heart (1962)
Жанр: Vocal Jazz
Год издания диска: 1999
Лейбл: Prestige
Номер по каталогу: OJCCD-1016-2
Аудио кодек: FLAC (*.flac)
Тип рипа: tracks+.cue
Битрейт аудио: lossless
Продолжительность: 30:07
Источник (релизер): вата (heychinasky)
Сканы: 300 dpi
Треклист:
01. Just Friends (3:01)
02. By The Bend Of The River (2:14)
03. Makin' Whoopee (2:50)
04. You Came A Long Way From Saint Louis (2:27)
05. Funny (3:07)
06. They Can't Take That Away From Me (2:07)
07. I'll Never Be Free (3:05)
08. I'm Afraid The Masquerade Is Over (2:57)
09. Good Morning, Heartache (2:33)
10. Look For The Silver Lining (2:27)
11. There Goes My Heart (3:18)
Rec.: Englewood Cliffs, NJ, February 8 & 9, 1962.
 
 
Лог создания рипа
EAC extraction logfile from 6. June 2009, 10:11 for CD
Etta Jones / From The Heart
Used drive : HL-DT-STDVD-RAM GSA-H22N Adapter: 1 ID: 1
Read mode : Secure with NO C2, accurate stream, disable cache
Read offset correction : 667
Overread into Lead-In and Lead-Out : No
Used output format : D:\Program Files\EAC\flac.exe (User Defined Encoder)
320 kBit/s
Additional command line options : -V -8 -T "artist=%a" -T "title=%t" -T "album=%g" -T "date=%y" -T "tracknumber=%n" -T "genre=%m" %s
Other options :
Fill up missing offset samples with silence : Yes
Delete leading and trailing silent blocks : No
Installed external ASPI interface
Track 1
Filename D:\Fiamma\Etta Jones - From The Heart (1962) [FLAC]\01 - Just Friends.wav
Pre-gap length 0:00:02.00
Peak level 83.2 %
Track quality 100.0 %
Test CRC 0206E336
Copy CRC 0206E336
Copy OK
Track 2
Filename D:\Fiamma\Etta Jones - From The Heart (1962) [FLAC]\02 - By The Bend Of The River.wav
Pre-gap length 0:00:01.50
Peak level 94.4 %
Track quality 99.9 %
Test CRC 68B92FDB
Copy CRC 68B92FDB
Copy OK
Track 3
Filename D:\Fiamma\Etta Jones - From The Heart (1962) [FLAC]\03 - Makin' Whoopee.wav
Pre-gap length 0:00:01.44
Peak level 82.6 %
Track quality 100.0 %
Test CRC DE106DEB
Copy CRC DE106DEB
Copy OK
Track 4
Filename D:\Fiamma\Etta Jones - From The Heart (1962) [FLAC]\04 - You Came A Long Way From Saint Louis.wav
Pre-gap length 0:00:01.66
Peak level 75.0 %
Track quality 100.0 %
Test CRC D213F8FD
Copy CRC D213F8FD
Copy OK
Track 5
Filename D:\Fiamma\Etta Jones - From The Heart (1962) [FLAC]\05 - Funny.wav
Pre-gap length 0:00:01.70
Peak level 81.1 %
Track quality 100.0 %
Test CRC 4B531FFC
Copy CRC 4B531FFC
Copy OK
Track 6
Filename D:\Fiamma\Etta Jones - From The Heart (1962) [FLAC]\06 - They Can't Take That Away From Me.wav
Pre-gap length 0:00:02.42
Peak level 94.3 %
Track quality 100.0 %
Test CRC 961C1A43
Copy CRC 961C1A43
Copy OK
Track 7
Filename D:\Fiamma\Etta Jones - From The Heart (1962) [FLAC]\07 - I'll Never Be Free.wav
Pre-gap length 0:00:01.44
Peak level 82.2 %
Track quality 100.0 %
Test CRC D8BC14F6
Copy CRC D8BC14F6
Copy OK
Track 8
Filename D:\Fiamma\Etta Jones - From The Heart (1962) [FLAC]\08 - I'm Afraid The Masquerade Is Over.wav
Peak level 86.2 %
Track quality 100.0 %
Test CRC 5647E89E
Copy CRC 5647E89E
Copy OK
Track 9
Filename D:\Fiamma\Etta Jones - From The Heart (1962) [FLAC]\09 - Good Morning, Heartache.wav
Peak level 95.4 %
Track quality 100.0 %
Test CRC 388FD088
Copy CRC 388FD088
Copy OK
Track 10
Filename D:\Fiamma\Etta Jones - From The Heart (1962) [FLAC]\10 - Look For The Silver Lining.wav
Pre-gap length 0:00:01.46
Peak level 82.7 %
Track quality 100.0 %
Test CRC E9B458C1
Copy CRC E9B458C1
Copy OK
Track 11
Filename D:\Fiamma\Etta Jones - From The Heart (1962) [FLAC]\11 - There Goes My Heart.wav
Pre-gap length 0:00:01.82
Peak level 89.5 %
Track quality 100.0 %
Test CRC 065EB1DF
Copy CRC 065EB1DF
Copy OK
No errors occured
End of status report
 
Содержание индексной карты (.CUE)
REM GENRE Jazz
REM DATE 1962
REM DISCID 77070E0B
REM COMMENT "ExactAudioCopy v0.95b3"
PERFORMER "Etta Jones"
TITLE "From The Heart"
FILE "01 - Just Friends.wav" WAVE
TRACK 01 AUDIO
TITLE "Just Friends"
PERFORMER "Etta Jones"
INDEX 01 00:00:00
TRACK 02 AUDIO
TITLE "By The Bend Of The River"
PERFORMER "Etta Jones"
INDEX 00 02:59:07
FILE "02 - By The Bend Of The River.wav" WAVE
INDEX 01 00:00:00
TRACK 03 AUDIO
TITLE "Makin' Whoopee"
PERFORMER "Etta Jones"
INDEX 00 02:12:52
FILE "03 - Makin' Whoopee.wav" WAVE
INDEX 01 00:00:00
TRACK 04 AUDIO
TITLE "You Came A Long Way From Saint Louis"
PERFORMER "Etta Jones"
INDEX 00 02:48:42
FILE "04 - You Came A Long Way From Saint Louis.wav" WAVE
INDEX 01 00:00:00
TRACK 05 AUDIO
TITLE "Funny"
PERFORMER "Etta Jones"
INDEX 00 02:25:10
FILE "05 - Funny.wav" WAVE
INDEX 01 00:00:00
TRACK 06 AUDIO
TITLE "They Can't Take That Away From Me"
PERFORMER "Etta Jones"
INDEX 00 03:04:45
FILE "06 - They Can't Take That Away From Me.wav" WAVE
INDEX 01 00:00:00
TRACK 07 AUDIO
TITLE "I'll Never Be Free"
PERFORMER "Etta Jones"
INDEX 00 02:05:65
FILE "07 - I'll Never Be Free.wav" WAVE
INDEX 01 00:00:00
FILE "08 - I'm Afraid The Masquerade Is Over.wav" WAVE
TRACK 08 AUDIO
TITLE "I'm Afraid The Masquerade Is Over"
PERFORMER "Etta Jones"
INDEX 01 00:00:00
FILE "09 - Good Morning, Heartache.wav" WAVE
TRACK 09 AUDIO
TITLE "Good Morning, Heartache"
PERFORMER "Etta Jones"
INDEX 01 00:00:00
TRACK 10 AUDIO
TITLE "Look For The Silver Lining"
PERFORMER "Etta Jones"
INDEX 00 02:31:60
FILE "10 - Look For The Silver Lining.wav" WAVE
INDEX 01 00:00:00
TRACK 11 AUDIO
TITLE "There Goes My Heart"
PERFORMER "Etta Jones"
INDEX 00 02:25:28
FILE "11 - There Goes My Heart.wav" WAVE
INDEX 01 00:00:00
 
Лог проверки качества
AUDIOCHECKER v2.0 beta (build 457) - by Dester - opdester@freemail.hu
~~~~~~~~~~~~~~~~~~~~~~~~~~~~~~~~~~
Started at: пятница, 03. 12. 2010. - 22:21.05
11 files found
01 -===- N:\01 - Just Friends.flac
Extracted successfully
Conclusion: this track is CDDA with probability 100%
Tempfile successfully deleted.
02 -===- N:\02 - By The Bend Of The River.flac
Extracted successfully
Conclusion: this track is CDDA with probability 100%
Tempfile successfully deleted.
03 -===- N:\03 - Makin' Whoopee.flac
Extracted successfully
Conclusion: this track is CDDA with probability 100%
Tempfile successfully deleted.
04 -===- N:\04 - You Came A Long Way From Saint Louis.flac
Extracted successfully
Conclusion: this track is CDDA with probability 100%
Tempfile successfully deleted.
05 -===- N:\05 - Funny.flac
Extracted successfully
Conclusion: this track is CDDA with probability 100%
Tempfile successfully deleted.
06 -===- N:\06 - They Can't Take That Away From Me.flac
Extracted successfully
Conclusion: this track is CDDA with probability 100%
Tempfile successfully deleted.
07 -===- N:\07 - I'll Never Be Free.flac
Extracted successfully
Conclusion: this track is CDDA with probability 100%
Tempfile successfully deleted.
08 -===- N:\08 - I'm Afraid The Masquerade Is Over.flac
Extracted successfully
Conclusion: this track is CDDA with probability 99%
Tempfile successfully deleted.
09 -===- N:\09 - Good Morning, Heartache.flac
Extracted successfully
Conclusion: this track is CDDA with probability 100%
Tempfile successfully deleted.
10 -===- N:\10 - Look For The Silver Lining.flac
Extracted successfully
Conclusion: this track is CDDA with probability 100%
Tempfile successfully deleted.
11 -===- N:\11 - There Goes My Heart.flac
Extracted successfully
Conclusion: this track is CDDA with probability 100%
Tempfile successfully deleted.
Finished at: пятница, 03. 12. 2010. - 22:23.57 (operation time: 0:02.51)
Download available for power users only.
19:14
390
Нет комментариев. Ваш будет первым!