Поиск

(Vocal Jazz) [CD] Halie Loren - Butterfly Blue - 2015, FLAC (tracks+.cue), lossless

(Vocal Jazz) [CD] Halie Loren - Butterfly Blue - 2015, FLAC (tracks+.cue), lossless
Треклист:
Halie Loren - Butterfly Blue
Жанр: Vocal Jazz
Носитель: CD
Страна-производитель диска (релиза): Канада
Год издания: 2015
Издатель (лейбл): Justin Time Records
Номер по каталогу: JTR 8591-2
Аудиокодек: FLAC (*.flac)
Тип рипа: tracks+.cue
Битрейт аудио: lossless
Продолжительность: 50:47
Источник (релизер): Zelou
Наличие сканов в содержимом раздачи: сетевые
Треклист:
01. Yellow Bird (3:37)
02. I Wish You Love (Que reste-t-il de nos amours?) (4:04)
03. Blue (4:44)
04. Stormy Weather (5:11)
05. Butterfly (4:36)
06. After the Fall (4:11)
07. Our Love Is Here to Stay (3:34)
08. I've Got You Under My Skin (4:11)
09. Danger in Loving You (3:27)
10. Boulevard of Broken Dreams (4:24)
11. Carry Us Through (5:13)
12. Peace (3:35)
Состав:
Halie Loren - vocals
Matt Treder - piano, organ
William Seiji Marsh, Daniel Gallo - guitars
Mark Schneider - bass
Brian West - drums
David Larsen - saxophones, clarinet
Joe Freuen - trombone
Dana Heitman - trumpet
Rob Birdwell - trumpet, flugelhorn
Katherine Dudney - cello
Recorded at White Moon Studio, Eugene, OR.
 
Лог создания рипа
Exact Audio Copy V1.3 from 2. September 2016
EAC extraction logfile from 22. July 2017, 20:00
Halie Loren / Butterfly Blue
Used drive : ATAPI DVD A DH16AAL Adapter: 1 ID: 0
Read mode : Secure
Utilize accurate stream : Yes
Defeat audio cache : Yes
Make use of C2 pointers : No
Read offset correction : 6
Overread into Lead-In and Lead-Out : No
Fill up missing offset samples with silence : Yes
Delete leading and trailing silent blocks : No
Null samples used in CRC calculations : Yes
Used interface : Native Win32 interface for Win NT & 2000
Gap handling : Appended to previous track
Used output format : User Defined Encoder
Selected bitrate : 1024 kBit/s
Quality : High
Add ID3 tag : No
Command line compressor : C:\Program Files (x86)\Exact Audio Copy\Flac\flac.exe
Additional command line options : -8 -e -p -V -T "ARTIST=%artist%" -T "TITLE=%title%" -T "ALBUM=%albumtitle%" -T "DATE=%year%" -T "TRACKNUMBER=%tracknr%" -T "GENRE=%genre%" -T "PERFORMER=%albuminterpret%" -T "COMPOSER=%composer%" %haslyrics%--tag-from-file=LYRICS="%lyricsfile%"%haslyrics% -T "ALBUMARTIST=%albumartist%" -T "DISCNUMBER=%cdnumber%" -T "TOTALDISCS=%totalcds%" -T "TOTALTRACKS=%numtracks%" -T "COMMENT=%comment%" %source% -o %dest%
TOC of the extracted CD
Track | Start | Length | Start sector | End sector
---------------------------------------------------------
1 | 0:00.00 | 3:36.74 | 0 | 16273
2 | 3:36.74 | 4:03.64 | 16274 | 34562
3 | 7:40.63 | 4:43.50 | 34563 | 55837
4 | 12:24.38 | 5:10.64 | 55838 | 79151
5 | 17:35.27 | 4:36.05 | 79152 | 99856
6 | 22:11.32 | 4:10.71 | 99857 | 118677
7 | 26:22.28 | 3:33.70 | 118678 | 134722
8 | 29:56.23 | 4:10.61 | 134723 | 153533
9 | 34:07.09 | 3:27.37 | 153534 | 169095
10 | 37:34.46 | 4:23.60 | 169096 | 188880
11 | 41:58.31 | 5:13.15 | 188881 | 212370
12 | 47:11.46 | 3:35.24 | 212371 | 228519
Track 1
Filename C:\Zelou\EAC Rips\Halie Loren - Butterfly Blue (2015) [FLAC] {JTR8591-2}\01 - Yellow Bird.wav
Pre-gap length 0:00:02.00
Peak level 96.6 %
Extraction speed 1.8 X
Track quality 100.0 %
Test CRC B94F83E8
Copy CRC B94F83E8
Accurately ripped (confidence 11) [47C9CA41] (AR v2)
Copy OK
Track 2
Filename C:\Zelou\EAC Rips\Halie Loren - Butterfly Blue (2015) [FLAC] {JTR8591-2}\02 - I Wish You Love.wav
Pre-gap length 0:00:02.00
Peak level 96.6 %
Extraction speed 2.0 X
Track quality 100.0 %
Test CRC 733E5EB4
Copy CRC 733E5EB4
Accurately ripped (confidence 11) [3144CBDC] (AR v2)
Copy OK
Track 3
Filename C:\Zelou\EAC Rips\Halie Loren - Butterfly Blue (2015) [FLAC] {JTR8591-2}\03 - Blue.wav
Pre-gap length 0:00:01.00
Peak level 96.6 %
Extraction speed 2.2 X
Track quality 100.0 %
Test CRC 26DB31E1
Copy CRC 26DB31E1
Accurately ripped (confidence 11) [CDE0436A] (AR v2)
Copy OK
Track 4
Filename C:\Zelou\EAC Rips\Halie Loren - Butterfly Blue (2015) [FLAC] {JTR8591-2}\04 - Stormy Weather.wav
Pre-gap length 0:00:01.53
Peak level 96.6 %
Extraction speed 2.5 X
Track quality 100.0 %
Test CRC 7AB182E5
Copy CRC 7AB182E5
Accurately ripped (confidence 11) [1EB8D09C] (AR v2)
Copy OK
Track 5
Filename C:\Zelou\EAC Rips\Halie Loren - Butterfly Blue (2015) [FLAC] {JTR8591-2}\05 - Butterfly.wav
Pre-gap length 0:00:02.00
Peak level 96.6 %
Extraction speed 2.6 X
Track quality 100.0 %
Test CRC 85AC349C
Copy CRC 85AC349C
Accurately ripped (confidence 11) [C949080C] (AR v2)
Copy OK
Track 6
Filename C:\Zelou\EAC Rips\Halie Loren - Butterfly Blue (2015) [FLAC] {JTR8591-2}\06 - After the Fall.wav
Pre-gap length 0:00:01.53
Peak level 96.6 %
Extraction speed 2.7 X
Track quality 100.0 %
Test CRC 3395D008
Copy CRC 3395D008
Accurately ripped (confidence 11) [B52E6DDE] (AR v2)
Copy OK
Track 7
Filename C:\Zelou\EAC Rips\Halie Loren - Butterfly Blue (2015) [FLAC] {JTR8591-2}\07 - Our Love is Here to Stay.wav
Pre-gap length 0:00:02.00
Peak level 96.6 %
Extraction speed 2.8 X
Track quality 100.0 %
Test CRC F1DC8E8A
Copy CRC F1DC8E8A
Accurately ripped (confidence 11) [55AD2AD6] (AR v2)
Copy OK
Track 8
Filename C:\Zelou\EAC Rips\Halie Loren - Butterfly Blue (2015) [FLAC] {JTR8591-2}\08 - I've Got You Under My Skin.wav
Pre-gap length 0:00:02.00
Peak level 96.6 %
Extraction speed 3.0 X
Track quality 100.0 %
Test CRC 7C5AF542
Copy CRC 7C5AF542
Accurately ripped (confidence 11) [EF5A87BD] (AR v2)
Copy OK
Track 9
Filename C:\Zelou\EAC Rips\Halie Loren - Butterfly Blue (2015) [FLAC] {JTR8591-2}\09 - Danger in Loving You.wav
Pre-gap length 0:00:02.00
Peak level 96.6 %
Extraction speed 2.1 X
Track quality 99.9 %
Test CRC A45F61A0
Copy CRC A45F61A0
Accurately ripped (confidence 11) [CE71D66E] (AR v2)
Copy OK
Track 10
Filename C:\Zelou\EAC Rips\Halie Loren - Butterfly Blue (2015) [FLAC] {JTR8591-2}\10 - Boulevard of Broken Dreams.wav
Pre-gap length 0:00:02.00
Peak level 96.6 %
Extraction speed 3.2 X
Track quality 100.0 %
Test CRC C492ACB8
Copy CRC C492ACB8
Accurately ripped (confidence 11) [35F0FF01] (AR v2)
Copy OK
Track 11
Filename C:\Zelou\EAC Rips\Halie Loren - Butterfly Blue (2015) [FLAC] {JTR8591-2}\11 - Carry Us Through.wav
Pre-gap length 0:00:02.00
Peak level 96.6 %
Extraction speed 3.4 X
Track quality 100.0 %
Test CRC F440A424
Copy CRC F440A424
Accurately ripped (confidence 11) [6CA4340A] (AR v2)
Copy OK
Track 12
Filename C:\Zelou\EAC Rips\Halie Loren - Butterfly Blue (2015) [FLAC] {JTR8591-2}\12 - Peace.wav
Pre-gap length 0:00:02.00
Peak level 96.6 %
Extraction speed 3.4 X
Track quality 100.0 %
Test CRC 84E9527A
Copy CRC 84E9527A
Accurately ripped (confidence 11) [A59A252E] (AR v2)
Copy OK
All tracks accurately ripped
No errors occurred
End of status report
---- CUETools DB Plugin V2.1.6
[CTDB TOCID: wtKHJf.887hDdZy58fSR1C9cKYc-] found
Submit result: wtKHJf.887hDdZy58fSR1C9cKYc- has been confirmed
Track | CTDB Status
1 | (25/25) Accurately ripped
2 | (25/25) Accurately ripped
3 | (25/25) Accurately ripped
4 | (25/25) Accurately ripped
5 | (25/25) Accurately ripped
6 | (25/25) Accurately ripped
7 | (25/25) Accurately ripped
8 | (25/25) Accurately ripped
9 | (25/25) Accurately ripped
10 | (25/25) Accurately ripped
11 | (25/25) Accurately ripped
12 | (23/25) Accurately ripped
==== Log checksum 712B87D66D86EC7C2EF3D7457E8EDA0B764362E76969F2C3EB06C9B12031AA0C ====
 
Содержание индексной карты (.CUE)
REM GENRE Jazz
REM DATE 2015
REM DISCID A30BE60C
REM COMMENT "ExactAudioCopy v1.3"
PERFORMER "Halie Loren"
TITLE "Butterfly Blue"
FILE "01 - Yellow Bird.wav" WAVE
TRACK 01 AUDIO
TITLE "Yellow Bird"
PERFORMER "Halie Loren"
ISRC USEDS1000197
INDEX 01 00:00:00
TRACK 02 AUDIO
TITLE "I Wish You Love (Que reste-t-il de nos amours?)"
PERFORMER "Halie Loren"
ISRC USEDS1000185
INDEX 00 03:34:74
FILE "02 - I Wish You Love (Que reste-t-il de nos amours).wav" WAVE
INDEX 01 00:00:00
TRACK 03 AUDIO
TITLE "Blue"
PERFORMER "Halie Loren"
ISRC USEDS1000190
INDEX 00 04:02:64
FILE "03 - Blue.wav" WAVE
INDEX 01 00:00:00
TRACK 04 AUDIO
TITLE "Stormy Weather"
PERFORMER "Halie Loren"
ISRC USEDS1000188
INDEX 00 04:42:10
FILE "04 - Stormy Weather.wav" WAVE
INDEX 01 00:00:00
TRACK 05 AUDIO
TITLE "Butterfly"
PERFORMER "Halie Loren"
ISRC USEDS1000199
INDEX 00 05:08:64
FILE "05 - Butterfly.wav" WAVE
INDEX 01 00:00:00
TRACK 06 AUDIO
TITLE "After the Fall"
PERFORMER "Halie Loren"
ISRC USEDS1000198
INDEX 00 04:34:40
FILE "06 - After the Fall.wav" WAVE
INDEX 01 00:00:00
TRACK 07 AUDIO
TITLE "Our Love Is Here to Stay"
PERFORMER "Halie Loren"
ISRC USEDS1000186
INDEX 00 04:08:71
FILE "07 - Our Love Is Here to Stay.wav" WAVE
INDEX 01 00:00:00
TRACK 08 AUDIO
TITLE "I've Got You Under My Skin"
PERFORMER "Halie Loren"
ISRC USEDS1000187
INDEX 00 03:31:70
FILE "08 - I've Got You Under My Skin.wav" WAVE
INDEX 01 00:00:00
TRACK 09 AUDIO
TITLE "Danger in Loving You"
PERFORMER "Halie Loren"
ISRC USEDS1000192
INDEX 00 04:08:61
FILE "09 - Danger in Loving You.wav" WAVE
INDEX 01 00:00:00
TRACK 10 AUDIO
TITLE "Boulevard of Broken Dreams"
PERFORMER "Halie Loren"
ISRC USEDS1000193
INDEX 00 03:25:37
FILE "10 - Boulevard of Broken Dreams.wav" WAVE
INDEX 01 00:00:00
TRACK 11 AUDIO
TITLE "Carry Us Through"
PERFORMER "Halie Loren"
ISRC USEDS1000200
INDEX 00 04:21:60
FILE "11 - Carry Us Through.wav" WAVE
INDEX 01 00:00:00
TRACK 12 AUDIO
TITLE "Peace"
PERFORMER "Halie Loren"
ISRC USEDS1000196
INDEX 00 05:11:15
FILE "12 - Peace.wav" WAVE
INDEX 01 00:00:00
 
Отчет CUETools
[CUETools log; Date: 10.07.2018 18:46:10; Version: 2.1.5]
[CTDB TOCID: wtKHJf.887hDdZy58fSR1C9cKYc-] found.
Track | CTDB Status
1 | (35/35) Accurately ripped
2 | (35/35) Accurately ripped
3 | (35/35) Accurately ripped
4 | (35/35) Accurately ripped
5 | (35/35) Accurately ripped
6 | (35/35) Accurately ripped
7 | (35/35) Accurately ripped
8 | (35/35) Accurately ripped
9 | (35/35) Accurately ripped
10 | (35/35) Accurately ripped
11 | (35/35) Accurately ripped
12 | (33/35) Accurately ripped
[AccurateRip ID: 0016c21f-00d49893-a30be60c] found.
Track [ CRC | V2 ] Status
01 [71d633d1|47c9ca41] (00+14/14) Accurately ripped
02 [1882f6cb|3144cbdc] (00+14/14) Accurately ripped
03 [3cceef10|cde0436a] (00+14/14) Accurately ripped
04 [264a5668|1eb8d09c] (00+14/14) Accurately ripped
05 [7e631976|c949080c] (00+14/14) Accurately ripped
06 [fe860fdb|b52e6dde] (00+14/14) Accurately ripped
07 [38a64f50|55ad2ad6] (00+14/14) Accurately ripped
08 [d330c0b6|ef5a87bd] (00+14/14) Accurately ripped
09 [9528646e|ce71d66e] (00+14/14) Accurately ripped
10 [f5ec9914|35f0ff01] (00+14/14) Accurately ripped
11 [e16f4f2b|6ca4340a] (00+14/14) Accurately ripped
12 [27c3abb9|a59a252e] (00+14/14) Accurately ripped
Track Peak [ CRC32 ] [W/O NULL] [ LOG ]
-- 96,6 [1B5C51DB] [54949CD4]
01 96,6 [B94F83E8] [DFFF4EEB] CRC32
02 96,6 [733E5EB4] [7E29685F] CRC32
03 96,6 [26DB31E1] [803CD6B9] CRC32
04 96,6 [7AB182E5] [FAD8EAAE] CRC32
05 96,6 [85AC349C] [F64D8626] CRC32
06 96,6 [3395D008] [FF4B0524] CRC32
07 96,6 [F1DC8E8A] [1391F04F] CRC32
08 96,6 [7C5AF542] [23500DFD] CRC32
09 96,6 [A45F61A0] [5679B9C5] CRC32
10 96,6 [C492ACB8] [CAF28760] CRC32
11 96,6 [F440A424] [1A4898DF] CRC32
12 96,6 [84E9527A] [84CD0961] CRC32
 
Об альбоме (сборнике)
Butterfly Blue, the stunning and soulful new album by international singer and songwriter Halie Loren, evokes poetic images of metamorphosis through struggle and transcendence, tinged with bittersweet melancholy.
"A lot of these songs were chosen because they explored different aspects of imprisonment and freedom," Loren explains. "Many of them have to do with ideas of being beholden to thoughts, feelings, and experiences from which you alone can also free yourself."
Through a soundtrack that includes guitars, piano, organ, double-bass, horns cellos, and layered vocals, "Butterfly Blue” weaves together a diverse and rich musical array of original songs, unique reads on standards, and little-known covers that have been long-treasured pieces of Loren's repertoire. Here, she draws inspiration from blues and soul influences while unapologetically planting one foot in the jazz realm and the other in pop without losing any of the warmth, charm, and sensuality that has always characterized her unique vocal approach, ultimately revealing a deeper, more nuanced side of Loren’s artistry featuring strength and vulnerability in equal measures.
На замену http://rutracker.org/forum/viewtopic.php?t=5069173
Скачивание доступно после регистрации!!
Приватный:
Нет (DHT включён)
Размер:
269.95 Мб (283,068,212 байт) » файлов: 22
Участники:
0 раздают, 0 качают (0 участников всего)
Внешние участники:
--- [ Обновить ]
07:39
21
Нет комментариев. Ваш будет первым!