Поиск

(Soul, R&B) [CD] Gene Chandler - Chisound Sessions 1978-1982 (2CD) - 2013, FLAC (tracks+.cue), lossless

(Soul, R&B) [CD] Gene Chandler - Chisound Sessions 1978-1982 (2CD) - 2013, FLAC (tracks+.cue), lossless
Треклист:
Gene Chandler - Chisound Sessions 1978-1982 (2CD)

Жанр: Soul, R&B | Носитель: CD
Год издания: 2013 | Издатель (лейбл): SPV | Номер по каталогу: SPV 265 952
Аудиокодек: FLAC (*.flac) | Тип рипа: tracks+.cue | Битрейт аудио: lossless
Продолжительность: 01:12:09 / 01:12:36 | Rip by JET 1
Наличие сканов в содержимом раздачи: да 
 
 
CD 1
Треклист:
01. That Funky Disco Rhythm (5:19)
02. When You're No. 1 (9:14)
03. I'll Remember You (3:49)
04. Do What Comes So Natural (5:06)
05. Stay Here In My Heart (6:18)
06. Dance Fever (7:24)
07. Does She Have A Friend? (4:13)
08. Lay Me Gently (4:47)
09. All About The Paper (4:40)
10. Rainbow '80 (5:28)
11. Do It Baby (3:37)
12. You've Been So Sweet To Me (4:29)
13. I'll Be There (3:36)
14. Let Me Make Love To You (4:09)
 
 
Лог создания рипа
Exact Audio Copy V1.0 beta 3 from 29. August 2011
EAC extraction logfile from 13. July 2015, 14:05
Gene Chandler / Chisound Sessions 1978-1982
Used drive : GENERIC CDRCB05 Adapter: 4 ID: 0
Read mode : Secure
Utilize accurate stream : Yes
Defeat audio cache : Yes
Make use of C2 pointers : No
Read offset correction : 102
Overread into Lead-In and Lead-Out : No
Fill up missing offset samples with silence : Yes
Delete leading and trailing silent blocks : No
Null samples used in CRC calculations : Yes
Used interface : Native Win32 interface for Win NT & 2000
Gap handling : Appended to previous track
Used output format : User Defined Encoder
Selected bitrate : 1024 kBit/s
Quality : High
Add ID3 tag : No
Command line compressor : C:\Program Files\FLAC\flac.exe
Additional command line options : -8 -V -T "ARTIST=%artist%" -T "TITLE=%title%" -T "ALBUM=%albumtitle%" -T "DATE=%year%" -T "TRACKNUMBER=%tracknr%" -T "GENRE=%genre%" -T "PERFORMER=%albuminterpret%" -T "COMPOSER=%composer%" %haslyrics%--tag-from-file=LYRICS="%lyricsfile%"%haslyrics% -T "ALBUMARTIST=%albumartist%" -T "DISCNUMBER=%cdnumber%" -T "TOTALDISCS=%totalcds%" -T "TOTALTRACKS=%numtracks%" -T "COMMENT=%comment%" %source% -o %dest%
TOC of the extracted CD
Track | Start | Length | Start sector | End sector
---------------------------------------------------------
1 | 0:00.00 | 5:19.08 | 0 | 23932
2 | 5:19.08 | 9:13.53 | 23933 | 65460
3 | 14:32.61 | 3:48.60 | 65461 | 82620
4 | 18:21.46 | 5:06.06 | 82621 | 105576
5 | 23:27.52 | 6:18.06 | 105577 | 133932
6 | 29:45.58 | 7:23.55 | 133933 | 167212
7 | 37:09.38 | 4:13.28 | 167213 | 186215
8 | 41:22.66 | 4:47.27 | 186216 | 207767
9 | 46:10.18 | 4:39.64 | 207768 | 228756
10 | 50:50.07 | 5:27.41 | 228757 | 253322
11 | 56:17.48 | 3:37.23 | 253323 | 269620
12 | 59:54.71 | 4:28.53 | 269621 | 289773
13 | 64:23.49 | 3:36.32 | 289774 | 306005
14 | 68:00.06 | 4:09.03 | 306006 | 324683
Track 1
Filename G:\MUSIC\0\POSTS\Gene Chandler - Chisound Sessions 1978-1982 (2013)\CD1\01 - That Funky Disco Rhythm.wav
Pre-gap length 0:00:02.00
Peak level 97.7 %
Extraction speed 2.4 X
Track quality 100.0 %
Test CRC 8B1436E4
Copy CRC 8B1436E4
Accurately ripped (confidence 1) [6AFBB3A0] (AR v2)
Copy OK
Track 2
Filename G:\MUSIC\0\POSTS\Gene Chandler - Chisound Sessions 1978-1982 (2013)\CD1\02 - When You're No. 1.wav
Peak level 97.4 %
Extraction speed 3.0 X
Track quality 100.0 %
Test CRC 821688E7
Copy CRC 821688E7
Accurately ripped (confidence 1) [46E1D12E] (AR v2)
Copy OK
Track 3
Filename G:\MUSIC\0\POSTS\Gene Chandler - Chisound Sessions 1978-1982 (2013)\CD1\03 - I'll Remember You.wav
Pre-gap length 0:00:01.74
Peak level 97.7 %
Extraction speed 3.0 X
Track quality 100.0 %
Test CRC 09C8FE79
Copy CRC 09C8FE79
Accurately ripped (confidence 1) [025F85DE] (AR v2)
Copy OK
Track 4
Filename G:\MUSIC\0\POSTS\Gene Chandler - Chisound Sessions 1978-1982 (2013)\CD1\04 - Do What Comes So Natural.wav
Pre-gap length 0:00:01.74
Peak level 97.4 %
Extraction speed 3.0 X
Track quality 99.9 %
Test CRC 1ADFECE8
Copy CRC 1ADFECE8
Accurately ripped (confidence 1) [AC5D5730] (AR v2)
Copy OK
Track 5
Filename G:\MUSIC\0\POSTS\Gene Chandler - Chisound Sessions 1978-1982 (2013)\CD1\05 - Stay Here In My Heart.wav
Pre-gap length 0:00:01.74
Peak level 97.7 %
Extraction speed 3.7 X
Track quality 100.0 %
Test CRC 6BD3F826
Copy CRC 6BD3F826
Accurately ripped (confidence 1) [B33F1099] (AR v2)
Copy OK
Track 6
Filename G:\MUSIC\0\POSTS\Gene Chandler - Chisound Sessions 1978-1982 (2013)\CD1\06 - Dance Fever.wav
Pre-gap length 0:00:01.74
Peak level 97.7 %
Extraction speed 4.1 X
Track quality 100.0 %
Test CRC 6D670A2D
Copy CRC 6D670A2D
Accurately ripped (confidence 1) [10E15B9F] (AR v2)
Copy OK
Track 7
Filename G:\MUSIC\0\POSTS\Gene Chandler - Chisound Sessions 1978-1982 (2013)\CD1\07 - Does She Have A Friend.wav
Pre-gap length 0:00:01.74
Peak level 97.4 %
Extraction speed 4.0 X
Track quality 100.0 %
Test CRC A115AAEE
Copy CRC A115AAEE
Accurately ripped (confidence 1) [F09EC683] (AR v2)
Copy OK
Track 8
Filename G:\MUSIC\0\POSTS\Gene Chandler - Chisound Sessions 1978-1982 (2013)\CD1\08 - Lay Me Gently.wav
Pre-gap length 0:00:01.74
Peak level 97.4 %
Extraction speed 4.2 X
Track quality 100.0 %
Test CRC D8828CE8
Copy CRC D8828CE8
Accurately ripped (confidence 1) [ACBF09CD] (AR v2)
Copy OK
Track 9
Filename G:\MUSIC\0\POSTS\Gene Chandler - Chisound Sessions 1978-1982 (2013)\CD1\09 - All About The Paper.wav
Pre-gap length 0:00:01.74
Peak level 97.4 %
Extraction speed 3.9 X
Track quality 99.9 %
Test CRC F7136885
Copy CRC F7136885
Accurately ripped (confidence 1) [F3AF3A3F] (AR v2)
Copy OK
Track 10
Filename G:\MUSIC\0\POSTS\Gene Chandler - Chisound Sessions 1978-1982 (2013)\CD1\10 - Rainbow '80.wav
Pre-gap length 0:00:01.74
Peak level 97.4 %
Extraction speed 4.6 X
Track quality 100.0 %
Test CRC 1CD68087
Copy CRC 1CD68087
Accurately ripped (confidence 1) [91B81881] (AR v2)
Copy OK
Track 11
Filename G:\MUSIC\0\POSTS\Gene Chandler - Chisound Sessions 1978-1982 (2013)\CD1\11 - Do It Baby.wav
Pre-gap length 0:00:01.74
Peak level 97.4 %
Extraction speed 4.5 X
Track quality 100.0 %
Test CRC EB4A9C1C
Copy CRC EB4A9C1C
Accurately ripped (confidence 1) [C17704ED] (AR v2)
Copy OK
Track 12
Filename G:\MUSIC\0\POSTS\Gene Chandler - Chisound Sessions 1978-1982 (2013)\CD1\12 - You've Been So Sweet To Me.wav
Pre-gap length 0:00:01.74
Peak level 97.4 %
Extraction speed 4.7 X
Track quality 100.0 %
Test CRC E91143FF
Copy CRC E91143FF
Accurately ripped (confidence 1) [C56A6D01] (AR v2)
Copy OK
Track 13
Filename G:\MUSIC\0\POSTS\Gene Chandler - Chisound Sessions 1978-1982 (2013)\CD1\13 - I'll Be There.wav
Pre-gap length 0:00:01.74
Peak level 97.5 %
Extraction speed 4.1 X
Track quality 99.9 %
Test CRC F9F094D0
Copy CRC F9F094D0
Accurately ripped (confidence 1) [06EE37FD] (AR v2)
Copy OK
Track 14
Filename G:\MUSIC\0\POSTS\Gene Chandler - Chisound Sessions 1978-1982 (2013)\CD1\14 - Let Me Make Love To You.wav
Pre-gap length 0:00:01.74
Peak level 97.4 %
Extraction speed 4.8 X
Track quality 100.0 %
Test CRC 5BC29EAB
Copy CRC 5BC29EAB
Accurately ripped (confidence 1) [D1A7981B] (AR v2)
Copy OK
All tracks accurately ripped
No errors occurred
End of status report
==== Log checksum C516C22465099FCAD12C5A1E3B98E2141085A3264891E552A53AEE79EF260A3B ====
 
Содержание индексной карты (.CUE)
REM GENRE R&B
REM DATE 2013
REM DISCID CC10E90E
REM COMMENT "ExactAudioCopy v1.0b3"
PERFORMER "Gene Chandler"
TITLE "Chisound Sessions 1978-1982 (disc 1)"
FILE "01 - That Funky Disco Rhythm.wav" WAVE
TRACK 01 AUDIO
TITLE "That Funky Disco Rhythm"
PERFORMER "Gene Chandler"
INDEX 01 00:00:00
FILE "02 - When You're No. 1.wav" WAVE
TRACK 02 AUDIO
TITLE "When You're No. 1"
PERFORMER "Gene Chandler"
INDEX 01 00:00:00
TRACK 03 AUDIO
TITLE "I'll Remember You"
PERFORMER "Gene Chandler"
INDEX 00 09:11:54
FILE "03 - I'll Remember You.wav" WAVE
INDEX 01 00:00:00
TRACK 04 AUDIO
TITLE "Do What Comes So Natural"
PERFORMER "Gene Chandler"
INDEX 00 03:46:61
FILE "04 - Do What Comes So Natural.wav" WAVE
INDEX 01 00:00:00
TRACK 05 AUDIO
TITLE "Stay Here In My Heart"
PERFORMER "Gene Chandler"
INDEX 00 05:04:07
FILE "05 - Stay Here In My Heart.wav" WAVE
INDEX 01 00:00:00
TRACK 06 AUDIO
TITLE "Dance Fever"
PERFORMER "Gene Chandler"
INDEX 00 06:16:07
FILE "06 - Dance Fever.wav" WAVE
INDEX 01 00:00:00
TRACK 07 AUDIO
TITLE "Does She Have A Friend?"
PERFORMER "Gene Chandler"
INDEX 00 07:21:56
FILE "07 - Does She Have A Friend.wav" WAVE
INDEX 01 00:00:00
TRACK 08 AUDIO
TITLE "Lay Me Gently"
PERFORMER "Gene Chandler"
INDEX 00 04:11:29
FILE "08 - Lay Me Gently.wav" WAVE
INDEX 01 00:00:00
TRACK 09 AUDIO
TITLE "All About The Paper"
PERFORMER "Gene Chandler"
INDEX 00 04:45:28
FILE "09 - All About The Paper.wav" WAVE
INDEX 01 00:00:00
TRACK 10 AUDIO
TITLE "Rainbow '80"
PERFORMER "Gene Chandler"
INDEX 00 04:37:65
FILE "10 - Rainbow '80.wav" WAVE
INDEX 01 00:00:00
TRACK 11 AUDIO
TITLE "Do It Baby"
PERFORMER "Gene Chandler"
INDEX 00 05:25:42
FILE "11 - Do It Baby.wav" WAVE
INDEX 01 00:00:00
TRACK 12 AUDIO
TITLE "You've Been So Sweet To Me "
PERFORMER "Gene Chandler"
INDEX 00 03:35:24
FILE "12 - You've Been So Sweet To Me.wav" WAVE
INDEX 01 00:00:00
TRACK 13 AUDIO
TITLE "I'll Be There"
PERFORMER "Gene Chandler"
INDEX 00 04:26:54
FILE "13 - I'll Be There.wav" WAVE
INDEX 01 00:00:00
TRACK 14 AUDIO
TITLE "Let Me Make Love To You"
PERFORMER "Gene Chandler"
INDEX 00 03:34:33
FILE "14 - Let Me Make Love To You.wav" WAVE
INDEX 01 00:00:00
 
CD 2
Треклист:
01. I'm Attracted To You (3:14)
02. Love Is The Answer (5:50)
03. I've Got To Meet You (4:18)
04. Almost All The Way (4:23)
05. For The Sake Of The Memories (3:21)
06. Almost Daylight (3:35)
07. God Bless Our Love (2:56)
08. God Send (3:24)
09. I Keep Coming Back (3:49)
10. Baby You're Something In The Clutch (4:17)
11. I'll Make The Living If You'll Make The Loving Worthwhile (4:56)
12. Time Is A Thief (4:46)
13. Skate AKA Miss Crazy Legs (5:24)
14. Good For You (3:59)
15. Where Have You Been (5:14)
16. Let Me Make Love To You (Long Version) (4:11)
17. Get Down (Demo Version) (4:59)
 
 
Лог создания рипа
Exact Audio Copy V1.0 beta 3 from 29. August 2011
EAC extraction logfile from 13. July 2015, 16:03
Gene Chandler / Chisound Sessions 1978-1982 (Disk Two)
Used drive : GENERIC CDRCB05 Adapter: 4 ID: 0
Read mode : Secure
Utilize accurate stream : Yes
Defeat audio cache : Yes
Make use of C2 pointers : No
Read offset correction : 102
Overread into Lead-In and Lead-Out : No
Fill up missing offset samples with silence : Yes
Delete leading and trailing silent blocks : No
Null samples used in CRC calculations : Yes
Used interface : Native Win32 interface for Win NT & 2000
Gap handling : Appended to previous track
Used output format : User Defined Encoder
Selected bitrate : 1024 kBit/s
Quality : High
Add ID3 tag : No
Command line compressor : C:\Program Files\FLAC\flac.exe
Additional command line options : -8 -V -T "ARTIST=%artist%" -T "TITLE=%title%" -T "ALBUM=%albumtitle%" -T "DATE=%year%" -T "TRACKNUMBER=%tracknr%" -T "GENRE=%genre%" -T "PERFORMER=%albuminterpret%" -T "COMPOSER=%composer%" %haslyrics%--tag-from-file=LYRICS="%lyricsfile%"%haslyrics% -T "ALBUMARTIST=%albumartist%" -T "DISCNUMBER=%cdnumber%" -T "TOTALDISCS=%totalcds%" -T "TOTALTRACKS=%numtracks%" -T "COMMENT=%comment%" %source% -o %dest%
TOC of the extracted CD
Track | Start | Length | Start sector | End sector
---------------------------------------------------------
1 | 0:00.00 | 3:13.38 | 0 | 14512
2 | 3:13.38 | 5:50.28 | 14513 | 40790
3 | 9:03.66 | 4:18.18 | 40791 | 60158
4 | 13:22.09 | 4:23.17 | 60159 | 79900
5 | 17:45.26 | 3:20.48 | 79901 | 94948
6 | 21:05.74 | 3:35.09 | 94949 | 111082
7 | 24:41.08 | 2:56.08 | 111083 | 124290
8 | 27:37.16 | 3:23.54 | 124291 | 139569
9 | 31:00.70 | 3:49.26 | 139570 | 156770
10 | 34:50.21 | 4:16.74 | 156771 | 176044
11 | 39:07.20 | 4:56.37 | 176045 | 198281
12 | 44:03.57 | 4:45.57 | 198282 | 219713
13 | 48:49.39 | 5:23.42 | 219714 | 243980
14 | 54:13.06 | 3:58.73 | 243981 | 261903
15 | 58:12.04 | 5:13.49 | 261904 | 285427
16 | 63:25.53 | 4:10.59 | 285428 | 304236
17 | 67:36.37 | 4:59.20 | 304237 | 326681
Track 1
Filename G:\MUSIC\0\POSTS\Gene Chandler - Chisound Sessions 1978-1982 (2013)\CD2\01 - I’m Attracted To You.wav
Pre-gap length 0:00:02.00
Peak level 97.7 %
Extraction speed 2.0 X
Track quality 99.9 %
Test CRC FD5E2518
Copy CRC FD5E2518
Accurately ripped (confidence 1) [7253DA90] (AR v2)
Copy OK
Track 2
Filename G:\MUSIC\0\POSTS\Gene Chandler - Chisound Sessions 1978-1982 (2013)\CD2\02 - Love Is The Answer.wav
Pre-gap length 0:00:01.74
Peak level 100.0 %
Extraction speed 2.7 X
Track quality 100.0 %
Test CRC ECC77BB9
Copy CRC ECC77BB9
Accurately ripped (confidence 1) [B49BF08F] (AR v2)
Copy OK
Track 3
Filename G:\MUSIC\0\POSTS\Gene Chandler - Chisound Sessions 1978-1982 (2013)\CD2\03 - I’ve Got To Meet You.wav
Pre-gap length 0:00:01.74
Peak level 100.0 %
Extraction speed 2.7 X
Track quality 100.0 %
Test CRC BD3D3B34
Copy CRC BD3D3B34
Accurately ripped (confidence 1) [9B8F39D1] (AR v2)
Copy OK
Track 4
Filename G:\MUSIC\0\POSTS\Gene Chandler - Chisound Sessions 1978-1982 (2013)\CD2\04 - Almost All The Way.wav
Pre-gap length 0:00:01.74
Peak level 100.0 %
Extraction speed 2.8 X
Track quality 100.0 %
Test CRC 122864DE
Copy CRC 122864DE
Accurately ripped (confidence 1) [F34487A8] (AR v2)
Copy OK
Track 5
Filename G:\MUSIC\0\POSTS\Gene Chandler - Chisound Sessions 1978-1982 (2013)\CD2\05 - For The Sake Of The Memories.wav
Pre-gap length 0:00:01.74
Peak level 100.0 %
Extraction speed 2.8 X
Track quality 100.0 %
Test CRC E06DCD28
Copy CRC E06DCD28
Accurately ripped (confidence 1) [E71DA80C] (AR v2)
Copy OK
Track 6
Filename G:\MUSIC\0\POSTS\Gene Chandler - Chisound Sessions 1978-1982 (2013)\CD2\06 - Almost Daylight.wav
Pre-gap length 0:00:01.74
Peak level 97.1 %
Extraction speed 2.6 X
Track quality 99.9 %
Test CRC 8EE55985
Copy CRC 8EE55985
Accurately ripped (confidence 1) [0B127F74] (AR v2)
Copy OK
Track 7
Filename G:\MUSIC\0\POSTS\Gene Chandler - Chisound Sessions 1978-1982 (2013)\CD2\07 - God Bless Our Love.wav
Pre-gap length 0:00:01.74
Peak level 100.0 %
Extraction speed 3.2 X
Track quality 100.0 %
Test CRC 3A5EB929
Copy CRC 3A5EB929
Accurately ripped (confidence 1) [C1794925] (AR v2)
Copy OK
Track 8
Filename G:\MUSIC\0\POSTS\Gene Chandler - Chisound Sessions 1978-1982 (2013)\CD2\08 - God Send.wav
Pre-gap length 0:00:01.74
Peak level 100.0 %
Extraction speed 3.4 X
Track quality 100.0 %
Test CRC B9B5BA2E
Copy CRC B9B5BA2E
Accurately ripped (confidence 1) [E49FE7F2] (AR v2)
Copy OK
Track 9
Filename G:\MUSIC\0\POSTS\Gene Chandler - Chisound Sessions 1978-1982 (2013)\CD2\09 - I Keep Coming Back.wav
Pre-gap length 0:00:01.74
Peak level 95.7 %
Extraction speed 3.3 X
Track quality 100.0 %
Test CRC 5B1D489E
Copy CRC 5B1D489E
Accurately ripped (confidence 1) [B9F2F506] (AR v2)
Copy OK
Track 10
Filename G:\MUSIC\0\POSTS\Gene Chandler - Chisound Sessions 1978-1982 (2013)\CD2\10 - Baby You’re Something In The Clutch.wav
Pre-gap length 0:00:01.74
Peak level 97.7 %
Extraction speed 3.3 X
Track quality 99.9 %
Test CRC 24FE3CD4
Copy CRC 24FE3CD4
Accurately ripped (confidence 1) [EAA755C5] (AR v2)
Copy OK
Track 11
Filename G:\MUSIC\0\POSTS\Gene Chandler - Chisound Sessions 1978-1982 (2013)\CD2\11 - I’ll Make The Living If You’ll Make The Loving Worthwhile.wav
Pre-gap length 0:00:01.74
Peak level 100.0 %
Extraction speed 3.6 X
Track quality 99.9 %
Test CRC A42F5A86
Copy CRC A42F5A86
Accurately ripped (confidence 1) [B191B78A] (AR v2)
Copy OK
Track 12
Filename G:\MUSIC\0\POSTS\Gene Chandler - Chisound Sessions 1978-1982 (2013)\CD2\12 - Time Is A Thief.wav
Pre-gap length 0:00:01.74
Peak level 100.0 %
Extraction speed 4.2 X
Track quality 100.0 %
Test CRC D6CD1763
Copy CRC D6CD1763
Accurately ripped (confidence 1) [0AE63E13] (AR v2)
Copy OK
Track 13
Filename G:\MUSIC\0\POSTS\Gene Chandler - Chisound Sessions 1978-1982 (2013)\CD2\13 - Skate AKA Miss Crazy Legs.wav
Pre-gap length 0:00:01.74
Peak level 100.0 %
Extraction speed 4.1 X
Track quality 100.0 %
Test CRC E01B7F29
Copy CRC E01B7F29
Accurately ripped (confidence 1) [DBAEEFE0] (AR v2)
Copy OK
Track 14
Filename G:\MUSIC\0\POSTS\Gene Chandler - Chisound Sessions 1978-1982 (2013)\CD2\14 - Good For You.wav
Pre-gap length 0:00:01.74
Peak level 98.3 %
Extraction speed 3.8 X
Track quality 100.0 %
Test CRC 32A0F5E6
Copy CRC 32A0F5E6
Accurately ripped (confidence 1) [C2527346] (AR v2)
Copy OK
Track 15
Filename G:\MUSIC\0\POSTS\Gene Chandler - Chisound Sessions 1978-1982 (2013)\CD2\15 - Where Have You Been.wav
Pre-gap length 0:00:01.74
Peak level 99.9 %
Extraction speed 4.3 X
Track quality 100.0 %
Test CRC 435A5D5A
Copy CRC 435A5D5A
Accurately ripped (confidence 1) [6D7CB002] (AR v2)
Copy OK
Track 16
Filename G:\MUSIC\0\POSTS\Gene Chandler - Chisound Sessions 1978-1982 (2013)\CD2\16 - Let Me Make Love To You (Long Version).wav
Pre-gap length 0:00:01.74
Peak level 90.8 %
Extraction speed 4.4 X
Track quality 100.0 %
Test CRC 033E9885
Copy CRC 033E9885
Accurately ripped (confidence 1) [DD39E69A] (AR v2)
Copy OK
Track 17
Filename G:\MUSIC\0\POSTS\Gene Chandler - Chisound Sessions 1978-1982 (2013)\CD2\17 - Get Down (Demo Version).wav
Pre-gap length 0:00:01.74
Peak level 99.9 %
Extraction speed 4.5 X
Track quality 100.0 %
Test CRC F052D648
Copy CRC F052D648
Accurately ripped (confidence 1) [74A6AFDF] (AR v2)
Copy OK
All tracks accurately ripped
No errors occurred
End of status report
==== Log checksum AE38D2D36E802F365917433F9F4C153BA1B1DE0ED1DBDE54FBB4C1305F0ACDA1 ====
 
Содержание индексной карты (.CUE)
REM GENRE R&B
REM DATE 2013
REM DISCID 05110311
REM COMMENT "ExactAudioCopy v1.0b3"
PERFORMER "Gene Chandler"
TITLE "Chisound Sessions 1978-1982 (disc 2)"
FILE "01 - I'm Attracted To You.wav" WAVE
TRACK 01 AUDIO
TITLE "I'm Attracted To You"
PERFORMER "Gene Chandler"
INDEX 01 00:00:00
TRACK 02 AUDIO
TITLE "Love Is The Answer"
PERFORMER "Gene Chandler"
INDEX 00 03:11:39
FILE "02 - Love Is The Answer.wav" WAVE
INDEX 01 00:00:00
TRACK 03 AUDIO
TITLE "I've Got To Meet You"
PERFORMER "Gene Chandler"
INDEX 00 05:48:29
FILE "03 - I've Got To Meet You.wav" WAVE
INDEX 01 00:00:00
TRACK 04 AUDIO
TITLE "Almost All The Way"
PERFORMER "Gene Chandler"
INDEX 00 04:16:19
FILE "04 - Almost All The Way.wav" WAVE
INDEX 01 00:00:00
TRACK 05 AUDIO
TITLE "For The Sake Of The Memories"
PERFORMER "Gene Chandler"
INDEX 00 04:21:18
FILE "05 - For The Sake Of The Memories.wav" WAVE
INDEX 01 00:00:00
TRACK 06 AUDIO
TITLE "Almost Daylight"
PERFORMER "Gene Chandler"
INDEX 00 03:18:49
FILE "06 - Almost Daylight.wav" WAVE
INDEX 01 00:00:00
TRACK 07 AUDIO
TITLE "God Bless Our Love"
PERFORMER "Gene Chandler"
INDEX 00 03:33:10
FILE "07 - God Bless Our Love.wav" WAVE
INDEX 01 00:00:00
TRACK 08 AUDIO
TITLE "God Send"
PERFORMER "Gene Chandler"
INDEX 00 02:54:09
FILE "08 - God Send.wav" WAVE
INDEX 01 00:00:00
TRACK 09 AUDIO
TITLE "I Keep Coming Back"
PERFORMER "Gene Chandler"
INDEX 00 03:21:55
FILE "09 - I Keep Coming Back.wav" WAVE
INDEX 01 00:00:00
TRACK 10 AUDIO
TITLE "Baby You're Something In The Clutch"
PERFORMER "Gene Chandler"
INDEX 00 03:47:27
FILE "10 - Baby You're Something In The Clutch.wav" WAVE
INDEX 01 00:00:00
TRACK 11 AUDIO
TITLE "I'll Make The Living If You'll Make The Loving Worthwhile"
PERFORMER "Gene Chandler"
INDEX 00 04:15:00
FILE "11 - I'll Make The Living If You'll Make The Loving Worthwhile.wav" WAVE
INDEX 01 00:00:00
TRACK 12 AUDIO
TITLE "Time Is A Thief"
PERFORMER "Gene Chandler"
INDEX 00 04:54:38
FILE "12 - Time Is A Thief.wav" WAVE
INDEX 01 00:00:00
TRACK 13 AUDIO
TITLE "Skate AKA Miss Crazy Legs"
PERFORMER "Gene Chandler"
INDEX 00 04:43:58
FILE "13 - Skate AKA Miss Crazy Legs.wav" WAVE
INDEX 01 00:00:00
TRACK 14 AUDIO
TITLE "Good For You"
PERFORMER "Gene Chandler"
INDEX 00 05:21:43
FILE "14 - Good For You.wav" WAVE
INDEX 01 00:00:00
TRACK 15 AUDIO
TITLE "Where Have You Been"
PERFORMER "Gene Chandler"
INDEX 00 03:56:74
FILE "15 - Where Have You Been.wav" WAVE
INDEX 01 00:00:00
TRACK 16 AUDIO
TITLE "Let Me Make Love To You (Long Version)"
PERFORMER "Gene Chandler"
INDEX 00 05:11:50
FILE "16 - Let Me Make Love To You (Long Version).wav" WAVE
INDEX 01 00:00:00
TRACK 17 AUDIO
TITLE "Get Down (Demo Version)"
PERFORMER "Gene Chandler"
INDEX 00 04:08:60
FILE "17 - Get Down (Demo Version).wav" WAVE
INDEX 01 00:00:00
Приватный:
Нет (DHT включён)
Размер:
1.05 Гб (1,127,170,287 байт) » файлов: 48
Участники:
0 раздают, 0 качают (0 участников всего)
Внешние участники:
2 раздают, 1 качают (3 участников всего) [ Обновить ]
No seeders - write a personal message to user M0p94ok. Нет сидеров - пишите личное сообщение пользователю M0p94ok.
07:10
174
Нет комментариев. Ваш будет первым!