Поиск

(Smooth Jazz) Thom Rotella - Can't Stop 1997, APE (image + .cue), lossless

Треклист:
Thom Rotella - Can't Stop
Страна: USA
Жанр: Smooth Jazz
Год выпуска: 1997
Формат: APE (image + .cue)
Битрейт аудио: lossless
Продолжительность: 48:22
Трэклист:
1. What's The Story?
2. Mood
3. Dance The Night Away
4. Lights Out
5. Can't Stop
6. As Close As We Can Get
7. The Thought Of You
8. Belly Up
9. If Only
10. Stay The Night
Доп. информация: Оф.сайт: http://www.thomrotella.com/
5 звезд на Амазоне http://www.amazon.com/Cant-Stop-Thom-Rotella/dp/B000005T3H/ref=sr_1_1?ie=UTF8&amp...77091&sr=1-1
 
Отчёт EAC
Exact Audio Copy V0.99 prebeta 4 from 23. January 2008
Отчёт EAC об извлечении, выполненном 23. апреля 2008, 23:22
Thom Rotella / Can't Stop
Дисковод: PIONEER DVD-RW DVR-108 Adapter: 1 ID: 0
Режим чтения : Достоверность
Использование точного потока : Да
Отключение кэша аудио : Да
Использование указателей C2 : Нет
Коррекция смещения при чтении : 48
Способность читать области Lead-in и Lead-out : Нет
Заполнение пропущенных сэмплов тишиной : Да
Удаление блоков с тишиной в начале и конце : Нет
При вычислениях CRC использовались нулевые сэмплы : Да
Интерфейс : Встроенный Win32-интерфейс для Win NT/2000
Выходной формат : Внутренние WAV-операции
Формат сэмплов : 44.100 Гц; 16 бит; стерео
TOC извлечённого CD
Трек | Старт | Длительность | Начальный сектор | Конечный сектор
---------------------------------------------------------------------
1 | 0:00.00 | 4:34.70 | 0 | 20619
2 | 4:34.70 | 4:28.45 | 20620 | 40764
3 | 9:03.40 | 4:47.05 | 40765 | 62294
4 | 13:50.45 | 4:44.52 | 62295 | 83646
5 | 18:35.22 | 5:11.40 | 83647 | 107011
6 | 23:46.62 | 5:01.50 | 107012 | 129636
7 | 28:48.37 | 5:10.63 | 129637 | 152949
8 | 33:59.25 | 5:00.57 | 152950 | 175506
9 | 39:00.07 | 4:46.45 | 175507 | 197001
10 | 43:46.52 | 4:35.23 | 197002 | 217649
Характеристики диапазона извлечения и сообщения об ошибках
Выбранный диапазон
Имя файла J:\Моя музыка\lossless\Thom Rotella - Can't Stop.wav
Пиковый уровень 99.8 %
Качество диапазона 100.0 %
CRC теста 544E5E46
CRC копии 544E5E46
Копирование... OK
Ошибок не произошло
Конец отчёта
Приватный:
Нет (DHT включён)
Размер:
303.06 Мб (317,778,508 байт) » файлов: 4
Участники:
0 раздают, 0 качают (0 участников всего)
Внешние участники:
--- [ Обновить ]
12:41
9
Нет комментариев. Ваш будет первым!