Поиск

(Smooth-jazz) The Best of Michael Franks - 1998 - A Backward Glance

(Smooth-jazz) The Best of Michael Franks - 1998 - A Backward Glance
Треклист:
The Best of Michael Franks - 1998 - A Backward Glance
Страна: США
Жанр: Smooth-jazz
Год выпуска: 1998
Лейбл: Warner Bros / Wea
Формат: FLAC (tracks)
Битрейт аудио: lossless
Продолжительность: 70
Трэклист:
1. Popsicle Toes
2. Eggplant
3. Lady Wants To Know, The
4. Antonio's Song (The Rainbow)
5. When The Cookie Jar Is Empty
6. Tiger In The Rain
7. Baseball
8. Love Duet
9. When Sly Calls (Don't Touch That Phone)
10.Your Secret's Safe With Me
11.When I Give My Love To You
12.Island Life
13.Art Of Love, The
14.Soul Mate
15.Hourglass
Personnel includes: Michael Franks (vocals, acoustic guitar); Larry Carlton, John Tropea, Bucky Pizzarelli, David Spinozza, Hugh McCracken, Jeff Mironov (guitar); Seldon Powell (soprano saxophone); David Sanborn (alto saxophone); Michael Brecker (tenor saxophone); Randy Brecker (flugelhorn); Joe Sample (piano, Fender Rhodes piano); Kenny Barron (piano); Rob Mounsey (Fender Rhodes piano, keyboards, programming); Leon Pendarvis, Don Grolnick (keyboards); Larry Bunker, Mike Mainieri (vibraphone); Wilton Felder, Will Lee, Ron Carter, Neil Jason, Francisco Centeno (bass); John Guerin (drums, percussion); Steve Gadd, Ben Riley, Rick Marrotta(drums); Victor Feldman, Sue Evans, Luis Conte (percussion).
Producers include: Tommy LiPuma, John Simon, Rob Mounsey, Jeff Lorber, Michael Colina.
 
EAC log
EAC extraction logfile from 7. October 2007, 16:44 for CD
Michael Franks / The Best of Michael Franks- A Backward Glance
Used drive : _NEC DVD_RW ND-4551A Adapter: 1 ID: 1
Read mode : Secure with NO C2, accurate stream, disable cache
Combined read/write offset correction : 48
Overread into Lead-In and Lead-Out : Yes
Used output format : Internal WAV Routines
44.100 Hz; 16 Bit; Stereo
Other options :
Fill up missing offset samples with silence : Yes
Delete leading and trailing silent blocks : No
Installed external ASPI interface
Track 1
Filename I:\Fusion - Smooth-jazz\Michael Franks\The Best of Michael Franks - 1998 - A Backward Glance\01. Popsicle Toes.wav
Pre-gap length 0:00:02.42
Peak level 97.9 %
Track quality 100.0 %
Test CRC F245E606
Copy CRC F245E606
Copy OK
Track 2
Filename I:\Fusion - Smooth-jazz\Michael Franks\The Best of Michael Franks - 1998 - A Backward Glance\02. Eggplant.wav
Pre-gap length 0:00:01.33
Peak level 97.9 %
Track quality 100.0 %
Test CRC BF6D5FEA
Copy CRC BF6D5FEA
Copy OK
Track 3
Filename I:\Fusion - Smooth-jazz\Michael Franks\The Best of Michael Franks - 1998 - A Backward Glance\03. The Lady Wants To Know.wav
Pre-gap length 0:00:00.57
Peak level 97.9 %
Track quality 100.0 %
Test CRC D0037D31
Copy CRC D0037D31
Copy OK
Track 4
Filename I:\Fusion - Smooth-jazz\Michael Franks\The Best of Michael Franks - 1998 - A Backward Glance\04. Antonio's Song.wav
Peak level 98.1 %
Track quality 100.0 %
Test CRC 2BA6C1EA
Copy CRC 2BA6C1EA
Copy OK
Track 5
Filename I:\Fusion - Smooth-jazz\Michael Franks\The Best of Michael Franks - 1998 - A Backward Glance\05. When The Cookie Jar Is Empty.wav
Pre-gap length 0:00:00.01
Peak level 97.9 %
Track quality 100.0 %
Test CRC 5C2A7E9C
Copy CRC 5C2A7E9C
Copy OK
Track 6
Filename I:\Fusion - Smooth-jazz\Michael Franks\The Best of Michael Franks - 1998 - A Backward Glance\06. Tiger In The Rain.wav
Pre-gap length 0:00:02.26
Peak level 99.9 %
Track quality 100.0 %
Test CRC BA6BCA8C
Copy CRC BA6BCA8C
Copy OK
Track 7
Filename I:\Fusion - Smooth-jazz\Michael Franks\The Best of Michael Franks - 1998 - A Backward Glance\07. Baseball.wav
Pre-gap length 0:00:02.44
Peak level 97.9 %
Track quality 100.0 %
Test CRC CAEB5F01
Copy CRC CAEB5F01
Copy OK
Track 8
Filename I:\Fusion - Smooth-jazz\Michael Franks\The Best of Michael Franks - 1998 - A Backward Glance\08. Love Duet.wav
Pre-gap length 0:00:01.41
Peak level 98.3 %
Track quality 100.0 %
Test CRC C161F98E
Copy CRC C161F98E
Copy OK
Track 9
Filename I:\Fusion - Smooth-jazz\Michael Franks\The Best of Michael Franks - 1998 - A Backward Glance\09. When Sly Calls.wav
Pre-gap length 0:00:02.46
Peak level 97.9 %
Track quality 100.0 %
Test CRC C71CADD5
Copy CRC C71CADD5
Copy OK
Track 10
Filename I:\Fusion - Smooth-jazz\Michael Franks\The Best of Michael Franks - 1998 - A Backward Glance\10. Your Secret's Safe With Me.wav
Pre-gap length 0:00:01.86
Peak level 97.9 %
Track quality 100.0 %
Test CRC E725EDC5
Copy CRC E725EDC5
Copy OK
Track 11
Filename I:\Fusion - Smooth-jazz\Michael Franks\The Best of Michael Franks - 1998 - A Backward Glance\11. When I Give My Love To You.wav
Pre-gap length 0:00:02.17
Peak level 97.9 %
Track quality 100.0 %
Test CRC 2968220D
Copy CRC 2968220D
Copy OK
Track 12
Filename I:\Fusion - Smooth-jazz\Michael Franks\The Best of Michael Franks - 1998 - A Backward Glance\12. Island Life.wav
Pre-gap length 0:00:02.17
Peak level 99.9 %
Track quality 100.0 %
Test CRC 7C44CD01
Copy CRC 7C44CD01
Copy OK
Track 13
Filename I:\Fusion - Smooth-jazz\Michael Franks\The Best of Michael Franks - 1998 - A Backward Glance\13. The Art Of Love.wav
Pre-gap length 0:00:02.37
Peak level 97.9 %
Track quality 99.9 %
Test CRC 2127F85E
Copy CRC 2127F85E
Copy OK
Track 14
Filename I:\Fusion - Smooth-jazz\Michael Franks\The Best of Michael Franks - 1998 - A Backward Glance\14. Soul Mate.wav
Pre-gap length 0:00:02.40
Peak level 98.1 %
Track quality 100.0 %
Test CRC A2470CDA
Copy CRC A2470CDA
Copy OK
Track 15
Filename I:\Fusion - Smooth-jazz\Michael Franks\The Best of Michael Franks - 1998 - A Backward Glance\15. Hourglass.wav
Pre-gap length 0:00:02.84
Suspicious position 0:04:45
Peak level 99.9 %
Track quality 99.8 %
Test CRC D9202752
Copy CRC D9202752
Copy finished
No errors occured
End of status report
В поддержку релиза Michael Franks - Дискография (неполная) - 1973-2006 от blackhorse с благодарностью и уважением!
Мои раздачи. Если нужно что-то подраздать - пишите в ЛС.
Скачивание доступно после регистрации!!
Приватный:
Нет (DHT включён)
Размер:
482.19 Мб (505,609,916 байт) » файлов: 25
Участники:
0 раздают, 0 качают (0 участников всего)
Внешние участники:
--- [ Обновить ]
11:11
8
Нет комментариев. Ваш будет первым!