Поиск

(Smooth Jazz, Saxophone) Boney James - Sweet Thing - 1997, FLAC (tracks + .cue), lossless

Треклист:
Boney James - Sweet Thing
Жанр: Smooth Jazz
Год выпуска: 1997
Формат: FLAC (tracks + .cue)
Битрейт аудио: lossless
Трэклист:
1. East Bay
2. Nothin' But Love
3. Words (Unspoken)
4. Sweet Thing
5. It's All Good
6. After The Rain
7. Innocence
8. I Still Dream
9. Ivory Coast
Зарелизено на rutracker.org
и
Доп. информация:
Audio CD (May 27, 1997)
Original Release Date: 1997
Number of Discs: 1
Label: Warner Bros / Wea
 
Лог извлечения EAC
EAC extraction logfile from 3. October 2007, 15:05 for CD
Boney James / Sweet Thing
Used drive : PLEXTOR DVDR PX-716A Adapter: 1 ID: 0
Read mode : Secure with NO C2, accurate stream, disable cache
Read offset correction : 30
Overread into Lead-In and Lead-Out : No
Used output format : Internal WAV Routines
44.100 Hz; 16 Bit; Stereo
Other options :
Fill up missing offset samples with silence : Yes
Delete leading and trailing silent blocks : No
Installed external ASPI interface
Track 1
Filename F:\[MyRip]\01 - East Bay.wav
Pre-gap length 0:00:02.32
Peak level 98.7 %
Track quality 100.0 %
Test CRC 8929424E
Copy CRC 8929424E
Copy OK
Track 2
Filename F:\[MyRip]\02 - Nothin' But Love.wav
Pre-gap length 0:00:01.12
Peak level 93.6 %
Track quality 100.0 %
Test CRC 3A836813
Copy CRC 3A836813
Copy OK
Track 3
Filename F:\[MyRip]\03 - Words (Unspoken).wav
Peak level 91.3 %
Track quality 100.0 %
Test CRC 282FE5A6
Copy CRC 282FE5A6
Copy OK
Track 4
Filename F:\[MyRip]\04 - Sweet Thing.wav
Pre-gap length 0:00:01.34
Peak level 88.2 %
Track quality 100.0 %
Test CRC 2C1E84EE
Copy CRC 2C1E84EE
Copy OK
Track 5
Filename F:\[MyRip]\05 - It's All Good.wav
Pre-gap length 0:00:02.15
Peak level 98.8 %
Track quality 99.9 %
Test CRC 780F0687
Copy CRC 780F0687
Copy OK
Track 6
Filename F:\[MyRip]\06 - After The Rain.wav
Peak level 98.7 %
Track quality 100.0 %
Test CRC D780C940
Copy CRC D780C940
Copy OK
Track 7
Filename F:\[MyRip]\07 - Innocence.wav
Peak level 99.0 %
Track quality 99.9 %
Test CRC 3FB6C413
Copy CRC 3FB6C413
Copy OK
Track 8
Filename F:\[MyRip]\08 - I Still Dream (Featuring Al Jarreau).wav
Peak level 85.1 %
Track quality 100.0 %
Test CRC CFD8E6B2
Copy CRC CFD8E6B2
Copy OK
Track 9
Filename F:\[MyRip]\09 - Ivory Coast.wav
Peak level 98.9 %
Track quality 100.0 %
Test CRC D4241AD3
Copy CRC D4241AD3
Copy OK
Track 10
Filename F:\[MyRip]\10 - It's All Good (Bonus Remix Featuring Eric Benet).wav
Pre-gap length 0:00:04.59
Peak level 98.8 %
Track quality 100.0 %
Test CRC 7698F3CE
Copy CRC 7698F3CE
Copy OK
No errors occured
End of status report
Этой раздачей Грабли продолжают раздачу прекрасного смус джазового саксофониста Бони Джеймса.
Приватный:
Нет (DHT включён)
Размер:
311.32 Мб (326,442,362 байт) » файлов: 20
Участники:
0 раздают, 0 качают (0 участников всего)
Внешние участники:
--- [ Обновить ]
Никого нет на раздаче - пишите личное сообщение M0p94ok
No seeders - write personal message to M0p94ok
11:38
15
Нет комментариев. Ваш будет первым!