Поиск

(Smooth Jazz, Passion Jazz) Fridrik Karlsson - A New Day - 2000, APE (image + .cue), lossless

Треклист:
Friðrik Karlsson - A New Day
Страна: UK
Жанр: Smooth Jazz, Passion Jazz
Год выпуска: 2000
Формат: APE (image + .cue)
Битрейт аудио: lossless
Продолжительность: 58:36
Трэклист:
1 Overture 1:47
2 Perfect Day 4:16
3 N'iceland 4:04
4 Don't Let Go 4:53
5 Sunrise 4:03
6 Blow It Out 4:50
7 Express It 4:15
8 Dream Away 4:11
9 New Day 4:36
10 Give It Up 3:49
11 Peaceful Afternoon 4:47
12 Thinking About You 4:46
13 African Dreams 4:00
14 Sohan Do 4:09
Доп. информация: В отличие от множества коллективов, играющих музыку в стиле smooth jazz, которая при высоком техническом качестве как правило не несет глубокой музыкальной информации, работы Friðrik Karlsson наполняют душу особым мягким и бодрым настроением и оставляют этот след надолго, поэтому я для себя могу смело поставить его в один ряд, например, с Acoustic Alchemy или Peter White.
Несмотря на то, что это имя вы раньше вряд ли слышали - если вы цените музыку smooth Jazz, то этот диск я бы очень рекомендовал для прослушивания.
Наиболее интересные композиции на мой вкус:
Peaceful Afternoon
Sunrise
Dream Away
Техническая информация:
Label: Passion music limited
 
Лог извлечения
Exact Audio Copy V0.99 prebeta 4 from 23. January 2008
Отчёт EAC об извлечении, выполненном 28. апреля 2008, 0:23
Karlsson, Fridrik / A new day
Дисковод: TSSTcorpCD/DVDW SH-S183A Adapter: 0 ID: 1
Режим чтения : Достоверность
Использование точного потока : Да
Отключение кэша аудио : Да
Использование указателей C2 : Нет
Коррекция смещения при чтении : 6
Способность читать области Lead-in и Lead-out : Нет
Заполнение пропущенных сэмплов тишиной : Да
Удаление блоков с тишиной в начале и конце : Нет
При вычислениях CRC использовались нулевые сэмплы : Да
Интерфейс : Встроенный Win32-интерфейс для Win NT/2000
Выходной формат : Внутренние WAV-операции
Формат сэмплов : 44.100 Гц; 16 бит; стерео
TOC извлечённого CD
Трек | Старт | Длительность | Начальный сектор | Конечный сектор
---------------------------------------------------------------------
1 | 0:00.00 | 1:47.22 | 0 | 8046
2 | 1:47.22 | 4:16.42 | 8047 | 27288
3 | 6:03.64 | 4:04.23 | 27289 | 45611
4 | 10:08.12 | 4:52.46 | 45612 | 67557
5 | 15:00.58 | 4:02.38 | 67558 | 85745
6 | 19:03.21 | 4:49.62 | 85746 | 107482
7 | 23:53.08 | 4:14.70 | 107483 | 126602
8 | 28:08.03 | 4:11.09 | 126603 | 145436
9 | 32:19.12 | 4:36.27 | 145437 | 166163
10 | 36:55.39 | 3:48.67 | 166164 | 183330
11 | 40:44.31 | 4:46.61 | 183331 | 204841
12 | 45:31.17 | 4:46.26 | 204842 | 226317
13 | 50:17.43 | 3:59.63 | 226318 | 244305
14 | 54:17.31 | 4:09.19 | 244306 | 262999
Характеристики диапазона извлечения и сообщения об ошибках
Выбранный диапазон
Имя файла D:\temp\Karlsson\Karlsson, Fridrik - A new day.wav
Пиковый уровень 100.0 %
Качество диапазона 100.0 %
CRC копии E84FFEA1
Копирование... OK
Ошибок не произошло
AccurateRip: сводка
Трек 1 нет в базе данных
Трек 2 нет в базе данных
Трек 3 нет в базе данных
Трек 4 нет в базе данных
Трек 5 нет в базе данных
Трек 6 нет в базе данных
Трек 7 нет в базе данных
Трек 8 нет в базе данных
Трек 9 нет в базе данных
Трек 10 нет в базе данных
Трек 11 нет в базе данных
Трек 12 нет в базе данных
Трек 13 нет в базе данных
Трек 14 нет в базе данных
Ни одного трека нет в базе AccurateRip
Конец отчёта
Внтури архива также находятся картинки и cue-файл.
Приватный:
Нет (DHT включён)
Размер:
385.76 Мб (404,495,835 байт) » файлов: 7
Участники:
0 раздают, 0 качают (0 участников всего)
Внешние участники:
--- [ Обновить ]
12:47
3
Нет комментариев. Ваш будет первым!