Поиск

(Smooth Jazz) Jeff Lorber - West Side Stories - 1994, FLAC (tracks)

Треклист:
Jeff Lorber - West Side Stories
Жанр: Smooth Jazz
Год выпуска: 1994
Формат: FLAC (tracks)
Количество треков: 11
Продолжительность: 50:11
Релизер: Jiggero
Weblink: http://www.lorber.com/discography/12_wss.html
Трэклист:
01 • 04:23 • Jeff Lorber - Grasshopper • 28,45 Mb • 906 Kbit/s
02 • 04:32 • Jeff Lorber - Point Venus • 30,92 Mb • 954 Kbit/s
03 • 05:19 • Jeff Lorber - Iguassu Falls • 33,17 Mb • 873 Kbit/s
04 • 04:29 • Jeff Lorber - Let The River Run • 30,18 Mb • 943 Kbit/s
05 • 04:16 • Jeff Lorber - Say Love • 28,19 Mb • 923 Kbit/s
06 • 04:15 • Jeff Lorber - Road Song • 27,86 Mb • 918 Kbit/s
07 • 05:17 • Jeff Lorber - No Regrets • 32,72 Mb • 866 Kbit/s
08 • 04:26 • Jeff Lorber - Tour's End • 30,51 Mb • 962 Kbit/s
09 • 05:02 • Jeff Lorber - Tuva • 33,49 Mb • 931 Kbit/s
10 • 04:30 • Jeff Lorber - Don't Forget The Love • 30,37 Mb • 943 Kbit/s
11 • 03:43 • Jeff Lorber - Toad's Place • 24,93 Mb • 936 Kbit/s
 
EAC Log
EAC extraction logfile from 8. May 2008, 21:25 for CD
Jeff Lorber / West Side Stories
Used drive : PIONEER DVD-RW DVR-110D Adapter: 0 ID: 0
Read mode : Secure with NO C2, accurate stream, disable cache
Read offset correction : 48
Overread into Lead-In and Lead-Out : No
Used output format : C:\Program Files\FLAC\flac.exe (User Defined Encoder)
320 kBit/s
Additional command line options : -T "artist=%a" -T "title=%t" -T "album=%g" -T "date=%y" -T "tracknumber=%n" -T "genre=%m" %s -8
Other options :
Fill up missing offset samples with silence : Yes
Delete leading and trailing silent blocks : No
Installed external ASPI interface
Track 1
Filename C:\EAC Rip\Jeff Lorber - West Side Stories\Jeff Lorber - West Side Stories - 01 Grasshopper.wav
Peak level 100.0 %
Track quality 99.9 %
Test CRC 9A11827A
Copy CRC 9A11827A
Copy OK
Track 2
Filename C:\EAC Rip\Jeff Lorber - West Side Stories\Jeff Lorber - West Side Stories - 02 Point Venus.wav
Peak level 100.0 %
Track quality 99.9 %
Test CRC E1EFE4C9
Copy CRC E1EFE4C9
Copy OK
Track 3
Filename C:\EAC Rip\Jeff Lorber - West Side Stories\Jeff Lorber - West Side Stories - 03 Iguassu Falls.wav
Peak level 100.0 %
Track quality 100.0 %
Test CRC BB44FCFE
Copy CRC BB44FCFE
Copy OK
Track 4
Filename C:\EAC Rip\Jeff Lorber - West Side Stories\Jeff Lorber - West Side Stories - 04 Let The River Run.wav
Peak level 100.0 %
Track quality 99.9 %
Test CRC 1E5F0361
Copy CRC 1E5F0361
Copy OK
Track 5
Filename C:\EAC Rip\Jeff Lorber - West Side Stories\Jeff Lorber - West Side Stories - 05 Say Love.wav
Peak level 100.0 %
Track quality 100.0 %
Test CRC F1F68079
Copy CRC F1F68079
Copy OK
Track 6
Filename C:\EAC Rip\Jeff Lorber - West Side Stories\Jeff Lorber - West Side Stories - 06 Road Song.wav
Peak level 100.0 %
Track quality 100.0 %
Test CRC C6DBA4F9
Copy CRC C6DBA4F9
Copy OK
Track 7
Filename C:\EAC Rip\Jeff Lorber - West Side Stories\Jeff Lorber - West Side Stories - 07 No Regrets.wav
Peak level 100.0 %
Track quality 100.0 %
Test CRC DB1F6981
Copy CRC DB1F6981
Copy OK
Track 8
Filename C:\EAC Rip\Jeff Lorber - West Side Stories\Jeff Lorber - West Side Stories - 08 Tour's End.wav
Peak level 100.0 %
Track quality 100.0 %
Test CRC F8312F76
Copy CRC F8312F76
Copy OK
Track 9
Filename C:\EAC Rip\Jeff Lorber - West Side Stories\Jeff Lorber - West Side Stories - 09 Tuva.wav
Peak level 100.0 %
Track quality 100.0 %
Test CRC F6C1E8FF
Copy CRC F6C1E8FF
Copy OK
Track 10
Filename C:\EAC Rip\Jeff Lorber - West Side Stories\Jeff Lorber - West Side Stories - 10 Don't Forget The Love.wav
Peak level 100.0 %
Track quality 100.0 %
Test CRC 881D14E2
Copy CRC 881D14E2
Copy OK
Track 11
Filename C:\EAC Rip\Jeff Lorber - West Side Stories\Jeff Lorber - West Side Stories - 11 Toad's Place.wav
Peak level 100.0 %
Track quality 100.0 %
Test CRC B3257363
Copy CRC B3257363
Copy OK
No errors occured
End of status report
Приватный:
Нет (DHT включён)
Размер:
335.82 Мб (352,137,253 байт) » файлов: 16
Участники:
0 раздают, 0 качают (0 участников всего)
Внешние участники:
3 раздают, 1 качают (4 участников всего) [ Обновить ]
12:52
14
Нет комментариев. Ваш будет первым!