Поиск

(Smooth Jazz) Dave Koz,Norman Brown, Brian Culbertson, Rick Braun -Golden Slumbers: A Father's Lullaby - 2002, APE (image + .cue), lossless

Треклист:
Dave Koz,Norman Brown, Brian Culbertson, Rick Braun -Golden Slumbers: A Father's Lullaby
Страна: Label: Warner Bros / Wea
Жанр: Smooth Jazz
Год выпуска: 2002
Формат: APE (image + .cue)
Битрейт аудио: lossless
Трэклист:
1. Blackbird - featuring Dave Koz and Jeff Koz
2. Isn't She Lovely - featuring John Stoddart
3. Charlotte's Song - featuring Peter White
4. Brahms' Lullaby - featuring Brian Culbertson
5. You'll Be in My Heart (Kala's Lullaby) - featuring Steve Kujala, Grant Geissman, and Brad Cole
6. Twinkle, Twinkle, Little Star - featuring Dave Koz and Jeff Koz
7. When You Wish Upon a Star - featuring David Benoit
8. Hush Little Baby - featuring Bruce Watson
9. Somewhere Over the Rainbow - featuring Rick Braun
10. Lullaby for Isabella - featuring Dave Koz and Jeff Koz
11. Afro Cuban Lullaby - featuring Bruce Watson
12. All the Pretty Horses/Scarborough Fair - featuring Grant Geissman and Brad Cole
13. You Can Close Your Eyes - featuring Norman Brown
14. Golden Slumber- featuring Dave Koz and Jeff Koz
Доп. информация:
 
Отчёт EAC
EAC extraction logfile from 4. August 2006, 14:02 for CD
Dave Koz / Golden Slumbers - A Father's Lullaby
Used drive : PLEXTOR DVDR PX-750A Adapter: 1 ID: 0
Read mode : Secure with NO C2, accurate stream, disable cache
Read offset correction : 102
Overread into Lead-In and Lead-Out : No
Used output format : C:\EAC\flac-1.1.2-win\bin\flac.exe (User Defined Encoder)
320 kBit/s
Additional command line options : -8 -V %s
Use compression offset : 102
Other options :
Fill up missing offset samples with silence : Yes
Delete leading and trailing silent blocks : No
Installed external ASPI interface
Track 1
Filename C:\zz_Downloads\Dave Koz - Golden Slumbers - A Father's Lullaby - 01 - Dave Koz & Jeff Koz , Blackbird.wav
Pre-gap length 0:00:02.00
Peak level 89.1 %
Track quality 100.0 %
Test CRC 8BA1C007
Copy CRC 8BA1C007
Copy OK
Track 2
Filename C:\zz_Downloads\Dave Koz - Golden Slumbers - A Father's Lullaby - 02 - John Stoddart , Isn't She Lovely.wav
Pre-gap length 0:00:01.04
Peak level 88.3 %
Track quality 100.0 %
Test CRC 6A0F2E65
Copy CRC 6A0F2E65
Copy OK
Track 3
Filename C:\zz_Downloads\Dave Koz - Golden Slumbers - A Father's Lullaby - 03 - Peter White , Charlotte's Song.wav
Peak level 71.3 %
Track quality 100.0 %
Test CRC F8D94FB2
Copy CRC F8D94FB2
Copy OK
Track 4
Filename C:\zz_Downloads\Dave Koz - Golden Slumbers - A Father's Lullaby - 04 - Brian Culbertson , Brahms' Lullaby.wav
Peak level 89.0 %
Track quality 100.0 %
Test CRC 45CE2FD4
Copy CRC 45CE2FD4
Copy OK
Track 5
Filename C:\zz_Downloads\Dave Koz - Golden Slumbers - A Father's Lullaby - 05 - Kuljala, Geissman, & Cole , You'll Be in My Heart (Kala's Lullaby).wav
Peak level 89.1 %
Track quality 99.9 %
Test CRC 1C15CA69
Copy CRC 1C15CA69
Copy OK
Track 6
Filename C:\zz_Downloads\Dave Koz - Golden Slumbers - A Father's Lullaby - 06 - Dave Koz & Jeff Koz , Twinkle, Twinkle, Little Star.wav
Peak level 80.1 %
Track quality 99.9 %
Test CRC 6CB94DDA
Copy CRC 6CB94DDA
Copy OK
Track 7
Filename C:\zz_Downloads\Dave Koz - Golden Slumbers - A Father's Lullaby - 07 - David Benoit , When You Wish Upon a Star.wav
Peak level 87.9 %
Track quality 100.0 %
Test CRC AC81C693
Copy CRC AC81C693
Copy OK
Track 8
Filename C:\zz_Downloads\Dave Koz - Golden Slumbers - A Father's Lullaby - 08 - Bruce Watson , Hush Little Baby.wav
Peak level 89.5 %
Track quality 100.0 %
Test CRC 19D5B94D
Copy CRC 19D5B94D
Copy OK
Track 9
Filename C:\zz_Downloads\Dave Koz - Golden Slumbers - A Father's Lullaby - 09 - Rick Braun , Somewhere Over the Rainbow.wav
Peak level 96.8 %
Track quality 100.0 %
Test CRC 6CD2D26E
Copy CRC 6CD2D26E
Copy OK
Track 10
Filename C:\zz_Downloads\Dave Koz - Golden Slumbers - A Father's Lullaby - 10 - Dave Koz & Jeff Koz , Lullaby for Isabella.wav
Peak level 88.2 %
Track quality 100.0 %
Test CRC 46C5194A
Copy CRC 46C5194A
Copy OK
Track 11
Filename C:\zz_Downloads\Dave Koz - Golden Slumbers - A Father's Lullaby - 11 - Bruce Watson , Afro Cuban Lullaby.wav
Pre-gap length 0:00:01.36
Peak level 73.6 %
Track quality 100.0 %
Test CRC 899CB213
Copy CRC 899CB213
Copy OK
Track 12
Filename C:\zz_Downloads\Dave Koz - Golden Slumbers - A Father's Lullaby - 12 - Grant Geissman & Brad Cole , All the Pretty Horses , Scarborough Fair.wav
Pre-gap length 0:00:01.00
Peak level 88.2 %
Track quality 100.0 %
Test CRC 1EEC5888
Copy CRC 1EEC5888
Copy OK
Track 13
Filename C:\zz_Downloads\Dave Koz - Golden Slumbers - A Father's Lullaby - 13 - Norman Brown , You Can Close Your Eyes.wav
Peak level 88.5 %
Track quality 100.0 %
Test CRC 38FA3342
Copy CRC 38FA3342
Copy OK
Track 14
Filename C:\zz_Downloads\Dave Koz - Golden Slumbers - A Father's Lullaby - 14 - Dave Koz & Jeff Koz , Golden Slumbers.wav
Peak level 92.1 %
Track quality 99.9 %
Test CRC 4D4106A5
Copy CRC 4D4106A5
Copy OK
No errors occured
End of status report
 
TAU
auCDtect: CD records authenticity detector, version 0.8.2
Copyright (c) 2004 Oleg Berngardt. All rights reserved.
Copyright (c) 2004 Alexander Djourik. All rights reserved.
------------------------------------------------------------
Processing file: [cdimage.wav]
------------------------------------------------------------
This track looks like CDDA with probability 100%
Приватный:
Нет (DHT включён)
Размер:
221.30 Мб (232,050,649 байт) » файлов: 7
Участники:
0 раздают, 0 качают (0 участников всего)
Внешние участники:
--- [ Обновить ]
12:30
3
Нет комментариев. Ваш будет первым!