Поиск

(Smooth Jazz, Contemporary Jazz) Philippe Saisse (feat. Jeff Golub, Angelique Kidjo, Kirk Whalum, Rick Braun, Marc Antoine) - At World's Edge - 2009, FLAC (tracks+.cue), lossless

Треклист:
Philippe Saisse - At World's Edge
Жанр: Smooth Jazz, Contemporary Jazz
Год выпуска диска: 2009
Производитель диска: KOCH Records
Продолжительность: 50:47
Аудио кодек: FLAC
Тип рипа: tracks+.cue
Битрейт аудио: lossless
Треклист:
1. From Nowhere To Now Here (Intro) 1:16
2. From Nowhere To Now Here 4:11
3. The Rover 3:59
4. Billy's Blues 4:21
5. At World's Edge (Instrumental) 4:12
6. Monday Afternoon 5:31
7. Assante Sana 3:45
8. Roppongi Blues 6:29
9. Through Tainted Glass 3:41
10. Topanga Moon Dance 6:25
11. Junto 2:40
12. At World's Edge 4:12
Состав (читайте внимательно, сплошные сливки):
Philippe Saisse - piano,keyboards and programming (Philippe is a Yamaha artist)
Simon Philips - drums
David Finck - acoustic bass
Lenny Castro - percussion
Scooter Warner - drums
Jeff Golub - guitar
Jasmine Roy - vocals
Ron Jenkins - bass
Jason Golley - trumpet and flugelhorn
Pino Palladino - bass
Annas Allaf - acoustic guitar and oud
Angelique Kidjo - vocals
Kirk Whalum - tenor sax
Rick Braun - trumpet
Michael Davis - trombone and bass trombone
Diane Hsu - flute
Marc Antoine - acoustic guitars
Jeff Beal - trumpet and flugelhorn
Рип от temptations.
 
EAC extraction logfile
Exact Audio Copy V0.99 prebeta 4 from 23. January 2008
EAC extraction logfile from 30. August 2009, 11:53
Philippe Saisse / At World's Edge
Used drive : HL-DT-STDVDRAM GH20NS10 Adapter: 2 ID: 0
Read mode : Secure
Utilize accurate stream : Yes
Defeat audio cache : Yes
Make use of C2 pointers : No
Read offset correction : 667
Overread into Lead-In and Lead-Out : No
Fill up missing offset samples with silence : Yes
Delete leading and trailing silent blocks : No
Null samples used in CRC calculations : Yes
Used interface : Native Win32 interface for Win NT & 2000
Gap handling : Appended to previous track
Used output format : User Defined Encoder
Selected bitrate : 1024 kBit/s
Quality : High
Add ID3 tag : No
Command line compressor : C:\Program Files\Exact Audio Copy\FLAC\FLAC.EXE
Additional command line options : -8 -V -T "ARTIST=%a" -T "TITLE=%t" -T "ALBUM=%g" -T "DATE=%y" -T "TRACKNUMBER=%n" -T "TOTALTRACKS=%x" -T "GENRE=%m" -T "ALBUMARTIST=%v" -T "ALBUM ARTIST=%v" -T "COMMENT=EAC V0.99 prebeta 4, Secure Mode, Test & Copy, Accurat
TOC of the extracted CD
Track | Start | Length | Start sector | End sector
---------------------------------------------------------
1 | 0:00.00 | 1:16.18 | 0 | 5717
2 | 1:16.18 | 4:11.29 | 5718 | 24571
3 | 5:27.47 | 3:59.60 | 24572 | 42556
4 | 9:27.32 | 4:21.26 | 42557 | 62157
5 | 13:48.58 | 4:12.42 | 62158 | 81099
6 | 18:01.25 | 5:31.37 | 81100 | 105961
7 | 23:32.62 | 3:45.49 | 105962 | 122885
8 | 27:18.36 | 6:29.25 | 122886 | 152085
9 | 33:47.61 | 3:41.40 | 152086 | 168700
10 | 37:29.26 | 6:25.28 | 168701 | 197603
11 | 43:54.54 | 2:40.48 | 197604 | 209651
12 | 46:35.27 | 4:12.08 | 209652 | 228559
Track 1
Filename D:\Philippe Saisse - At World's Edge (2009) [FLAC] {KOC-CD-4497}\01 - From Nowhere To Now Here (Intro).wav
Pre-gap length 0:00:02.00
Peak level 99.8 %
Track quality 100.0 %
Test CRC 827A7645
Copy CRC 827A7645
Cannot be verified as accurate (confidence 1) [E53857A6], AccurateRip returned [323725A1]
Copy OK
Track 2
Filename D:\Philippe Saisse - At World's Edge (2009) [FLAC] {KOC-CD-4497}\02 - From Nowhere To Now Here.wav
Peak level 99.8 %
Track quality 99.9 %
Test CRC FCA246B1
Copy CRC FCA246B1
Cannot be verified as accurate (confidence 1) [3234A167], AccurateRip returned [AA9716D0]
Copy OK
Track 3
Filename D:\Philippe Saisse - At World's Edge (2009) [FLAC] {KOC-CD-4497}\03 - The Rover.wav
Peak level 99.8 %
Track quality 100.0 %
Test CRC CC9ED400
Copy CRC CC9ED400
Cannot be verified as accurate (confidence 1) [CC3407A2], AccurateRip returned [E2124B90]
Copy OK
Track 4
Filename D:\Philippe Saisse - At World's Edge (2009) [FLAC] {KOC-CD-4497}\04 - Billy's Blues.wav
Peak level 99.8 %
Track quality 99.9 %
Test CRC 64A690A6
Copy CRC 64A690A6
Cannot be verified as accurate (confidence 1) [EF95D344], AccurateRip returned [88F7FEB0]
Copy OK
Track 5
Filename D:\Philippe Saisse - At World's Edge (2009) [FLAC] {KOC-CD-4497}\05 - At World's Edge (Instrumental).wav
Peak level 99.8 %
Track quality 100.0 %
Test CRC 184047A1
Copy CRC 184047A1
Cannot be verified as accurate (confidence 1) [6F49E081], AccurateRip returned [0C53D59F]
Copy OK
Track 6
Filename D:\Philippe Saisse - At World's Edge (2009) [FLAC] {KOC-CD-4497}\06 - Monday Afternoon.wav
Peak level 99.8 %
Track quality 100.0 %
Test CRC 978180F8
Copy CRC 978180F8
Cannot be verified as accurate (confidence 1) [9A51C437], AccurateRip returned [3F2C54D7]
Copy OK
Track 7
Filename D:\Philippe Saisse - At World's Edge (2009) [FLAC] {KOC-CD-4497}\07 - Assante Sana.wav
Peak level 99.8 %
Track quality 100.0 %
Test CRC EC2A7EBC
Copy CRC EC2A7EBC
Cannot be verified as accurate (confidence 1) [2B4E39B6], AccurateRip returned [480AA4AA]
Copy OK
Track 8
Filename D:\Philippe Saisse - At World's Edge (2009) [FLAC] {KOC-CD-4497}\08 - Roppongi Blues.wav
Peak level 99.8 %
Track quality 100.0 %
Test CRC 3DA06516
Copy CRC 3DA06516
Cannot be verified as accurate (confidence 1) [252FC14E], AccurateRip returned [9AE13EC4]
Copy OK
Track 9
Filename D:\Philippe Saisse - At World's Edge (2009) [FLAC] {KOC-CD-4497}\09 - Through Tainted Glass.wav
Peak level 99.8 %
Track quality 100.0 %
Test CRC BFC50459
Copy CRC BFC50459
Cannot be verified as accurate (confidence 1) [8DAA6ACA], AccurateRip returned [ADB6DEF6]
Copy OK
Track 10
Filename D:\Philippe Saisse - At World's Edge (2009) [FLAC] {KOC-CD-4497}\10 - Topanga Moon Dance.wav
Peak level 99.8 %
Track quality 100.0 %
Test CRC E65D34D0
Copy CRC E65D34D0
Cannot be verified as accurate (confidence 1) [754FC3B3], AccurateRip returned [98E0119B]
Copy OK
Track 11
Filename D:\Philippe Saisse - At World's Edge (2009) [FLAC] {KOC-CD-4497}\11 - Junto.wav
Peak level 83.3 %
Track quality 100.0 %
Test CRC 53CD4798
Copy CRC 53CD4798
Cannot be verified as accurate (confidence 1) [E793BE97], AccurateRip returned [06BF1D49]
Copy OK
Track 12
Filename D:\Philippe Saisse - At World's Edge (2009) [FLAC] {KOC-CD-4497}\12 - At World's Edge (Vocal).wav
Peak level 99.8 %
Track quality 100.0 %
Test CRC 37E55547
Copy CRC 37E55547
Cannot be verified as accurate (confidence 1) [F550FE54], AccurateRip returned [52231CD9]
Copy OK
No tracks could be verified as accurate
You may have a different pressing from the one(s) in the database
No errors occurred
End of status report
 
Audiochecker logfile
Started at: суббота, 10. 07. 2010. - 10:17.16
12 files found
01 -===- E:\Philippe Saisse - At World's Edge\01 - From Nowhere To Now Here (Intro).flac
Extracted successfully
Conclusion: this track is CDDA with probability 100%
Tempfile successfully deleted.
02 -===- E:\Philippe Saisse - At World's Edge\02 - From Nowhere To Now Here.flac
Extracted successfully
Conclusion: this track is CDDA with probability 100%
Tempfile successfully deleted.
03 -===- E:\Philippe Saisse - At World's Edge\03 - The Rover.flac
Extracted successfully
Conclusion: this track is CDDA with probability 100%
Tempfile successfully deleted.
04 -===- E:\Philippe Saisse - At World's Edge\04 - Billy's Blues.flac
Extracted successfully
Conclusion: this track is CDDA with probability 100%
Tempfile successfully deleted.
05 -===- E:\Philippe Saisse - At World's Edge\05 - At World's Edge (Instrumental).flac
Extracted successfully
Conclusion: this track is CDDA with probability 99%
Tempfile successfully deleted.
06 -===- E:\Philippe Saisse - At World's Edge\06 - Monday Afternoon.flac
Extracted successfully
Conclusion: this track is CDDA with probability 100%
Tempfile successfully deleted.
07 -===- E:\Philippe Saisse - At World's Edge\07 - Assante Sana.flac
Extracted successfully
Conclusion: this track is CDDA with probability 100%
Tempfile successfully deleted.
08 -===- E:\Philippe Saisse - At World's Edge\08 - Roppongi Blues.flac
Extracted successfully
Conclusion: this track is CDDA with probability 100%
Tempfile successfully deleted.
09 -===- E:\Philippe Saisse - At World's Edge\09 - Through Tainted Glass.flac
Extracted successfully
Conclusion: this track is CDDA with probability 100%
Tempfile successfully deleted.
10 -===- E:\Philippe Saisse - At World's Edge\10 - Topanga Moon Dance.flac
Extracted successfully
Conclusion: this track is CDDA with probability 100%
Tempfile successfully deleted.
11 -===- E:\Philippe Saisse - At World's Edge\11 - Junto.flac
Extracted successfully
Conclusion: this track is CDDA with probability 100%
Tempfile successfully deleted.
12 -===- E:\Philippe Saisse - At World's Edge\12 - At World's Edge (Vocal).flac
Extracted successfully
Conclusion: this track is CDDA with probability 100%
Tempfile successfully deleted.
Finished at: суббота, 10. 07. 2010. - 10:20.44 (operation time: 0:03.28)
 
Cue в шапке
REM GENRE Fusion
REM DATE 2009
REM DISCID A00BE70C
REM COMMENT "ExactAudioCopy v0.99pb4"
PERFORMER "Philippe Saisse"
TITLE "At World's Edge"
FILE "01 - From Nowhere To Now Here (Intro).flac" WAVE
TRACK 01 AUDIO
TITLE "From Nowhere To Now Here (Intro)"
PERFORMER "Philippe Saisse"
INDEX 01 00:00:00
FILE "02 - From Nowhere To Now Here.flac" WAVE
TRACK 02 AUDIO
TITLE "From Nowhere To Now Here"
PERFORMER "Philippe Saisse"
INDEX 01 00:00:00
FILE "03 - The Rover.flac" WAVE
TRACK 03 AUDIO
TITLE "The Rover"
PERFORMER "Philippe Saisse"
INDEX 01 00:00:00
FILE "04 - Billy's Blues.flac" WAVE
TRACK 04 AUDIO
TITLE "Billy's Blues"
PERFORMER "Philippe Saisse"
INDEX 01 00:00:00
FILE "05 - At World's Edge (Instrumental).flac" WAVE
TRACK 05 AUDIO
TITLE "At World's Edge (Instrumental)"
PERFORMER "Philippe Saisse"
INDEX 01 00:00:00
FILE "06 - Monday Afternoon.flac" WAVE
TRACK 06 AUDIO
TITLE "Monday Afternoon"
PERFORMER "Philippe Saisse"
INDEX 01 00:00:00
FILE "07 - Assante Sana.flac" WAVE
TRACK 07 AUDIO
TITLE "Assante Sana"
PERFORMER "Philippe Saisse"
INDEX 01 00:00:00
FILE "08 - Roppongi Blues.flac" WAVE
TRACK 08 AUDIO
TITLE "Roppongi Blues"
PERFORMER "Philippe Saisse"
INDEX 01 00:00:00
FILE "09 - Through Tainted Glass.flac" WAVE
TRACK 09 AUDIO
TITLE "Through Tainted Glass"
PERFORMER "Philippe Saisse"
INDEX 01 00:00:00
FILE "10 - Topanga Moon Dance.flac" WAVE
TRACK 10 AUDIO
TITLE "Topanga Moon Dance"
PERFORMER "Philippe Saisse"
INDEX 01 00:00:00
FILE "11 - Junto.flac" WAVE
TRACK 11 AUDIO
TITLE "Junto"
PERFORMER "Philippe Saisse"
INDEX 01 00:00:00
FILE "12 - At World's Edge (Vocal).flac" WAVE
TRACK 12 AUDIO
TITLE "At World's Edge (Vocal)"
PERFORMER "Philippe Saisse"
INDEX 01 00:00:00
Остаётся добавить, что альбом номинировался на Grammy-2010 в категории «Лучший альбом современного джаза». Предпрослушка Приятных впечатлений!
Приватный:
Нет (DHT включён)
Размер:
317.82 Мб (333,258,326 байт) » файлов: 24
Участники:
0 раздают, 0 качают (0 участников всего)
Внешние участники:
3 раздают, 1 качают (4 участников всего) [ Обновить ]
For power users only: no seeders - write personal message to M0p94ok. Для power user: нет сидеров - пишите в личку M0p94ok.
22:05
164
Нет комментариев. Ваш будет первым!