Поиск

[SACD-R][OF] Art Pepper - The Intimate Art Pepper - 1979/2003 (Jazz, Bop, Cool Jazz)

[SACD-R][OF] Art Pepper - The Intimate Art Pepper - 1979/2003 (Jazz, Bop, Cool Jazz)
Треклист:
Art Pepper / The Intimate Art Pepper
Формат записи/Источник записи: [SACD-R][OF]
Наличие водяных знаков: Нет
Год издания/переиздания диска: 1979/2003
Жанр: Jazz, Bop, Cool Jazz
Издатель (лейбл): Analogue Productions
Продолжительность: 01:01:33
Наличие сканов в содержимом раздачи: Только обложка альбома
Треклист:
01. In A Mellow Tone
02. Yesterdays
03. You Go To My Head
04. Tin Tin Deo
05. Body And Soul
06. Landscape
07. Anthropology
08. Desafinado
Alto Saxophone – Art Pepper
Bass – Charlie Haden, Ron Carter (tracks: A2)
Drums – Al Foster
Piano – Hank Jones
Контейнер: ISO (*.iso)
Тип рипа: image
Разрядность: 64(2,8 MHz/1 Bit)
Формат: DSD
Количество каналов: 2.0
Доп. информация: THE INTIMATE ART PEPPER features material originally recorded during sessions in 1979 for the albums SO IN LOVE and NEW YORK ALBUM.
Producer – John Snyder, Laurie Pepper
Analogue Productions – APR3014
Mastered by Kevin Gray, Steve Hoffman at AcousTech Mastering
Iso was made with sacd-ripper for PS3, from the magical Mr_Wicked.
Источник (релизер): jazzyman (PS³SACD)
http://store.acousticsounds.com/d/12626/Art_Pepper-The_Intimate_Art_Pepper-Hybrid_Stereo_SACD
https://www.discogs.com/Art-Pepper-Intimate-Art-Pepper/release/9191827
 
Лог DR
foobar2000 1.3.13 / Замер динамического диапазона (DR) 1.1.1
Дата отчёта:  2018-02-07 09:27:01
--------------------------------------------------------------------------------
Анализ:   Art Pepper / The Intimate Art Pepper
--------------------------------------------------------------------------------
DR         Пики         RMS           Продолжительность трека
--------------------------------------------------------------------------------
DR15      -3.89 дБ   -21.42 дБ     10:10 01-In A Mellow Tone
DR15      -3.51 дБ   -20.78 дБ      7:06 02-Yesterdays
DR13      -7.36 дБ   -22.75 дБ      6:00 03-You Go To My Head
DR15      -2.43 дБ   -19.95 дБ     11:19 04-Tin Tin Deo
DR13      -6.13 дБ   -22.15 дБ      4:38 05-Body And Soul
DR16      -1.63 дБ   -20.51 дБ      7:32 06-Landscape
DR14      -5.92 дБ   -21.42 дБ      6:40 07-Anthropology
DR15      -2.94 дБ   -20.54 дБ      8:08 08-Desafinado
--------------------------------------------------------------------------------
Количество треков: 8
Реальные значения DR: DR15
Частота:   2822400 Гц / Частота PCM: 352800 Гц
Каналов:   2
Разрядность:   24
Битрейт:   5645 кбит/с
Кодек:   DSD64
================================================================================
09:07
554
Нет комментариев. Ваш будет первым!