Вы используете незарегистрированную версию компонента "Вкладки"!

Поиск

[SACD-R][OF] Art Pepper - Gettin’ Together (Reissue) - 1960/2012 (Post Bop, Cool Jazz)

[SACD-R][OF] Art Pepper - Gettin’ Together (Reissue) - 1960/2012 (Post Bop, Cool Jazz)
Треклист:
Art Pepper / Gettin’ Together
Формат записи/Источник записи: [SACD-R][OF]
Наличие водяных знаков: Нет
Издание: Reissue
Год издания/переиздания диска: 1960/2012
Жанр: Post Bop, Cool Jazz
Издатель(лейбл): Contemporary Records (UCGO-9026 )
Продолжительность: 42:54
Наличие сканов в содержимом раздачи: Да (сканы)
Треклист:
01. "Whims of Chambers" (Paul Chambers) – 6:56
02. "Bijou the Poodle" (Art Pepper) – 5:48
03. "Why Are We Afraid" (Dory Langdon; André Previn) – 3:36
04. "Softly, as in a Morning Sunrise" (Sigmund Romberg; Oscar Hammerstein II) – 6:55
05. "Rhythm-a-Ning" (Thelonious Monk) – 7:15
06. "Diane" (Art Pepper) – 5:03
07. "Gettin' Together" (Art Pepper) –7 :50
Контейнер: ISO (*.iso)
Тип рипа: image
Разрядность: 64 (2,8 MHz/1 Bit)
Формат: DSD64
Количество каналов: 2.0
 
Лог проверки качества - DR17
foobar2000 1.3.9 / Dynamic Range Meter 1.1.1
log date: 2016-06-17 10:47:28
--------------------------------------------------------------------------------
Analyzed: Art Pepper / Gettin' Together
--------------------------------------------------------------------------------
DR Peak RMS Duration Track
--------------------------------------------------------------------------------
DR18 -1.21 dB -22.73 dB 6:58 01-Whims Of Chambers
DR16 -2.62 dB -23.08 dB 6:01 02-Bijou The Poodle
DR16 -3.60 dB -23.64 dB 3:37 03-Why Are We Afraid?
DR18 -0.80 dB -22.76 dB 6:57 04-Softly, As In A Morning Sunrise
DR17 -0.99 dB -21.65 dB 7:17 05-Rhythm-A-Ning
DR17 -3.33 dB -24.67 dB 5:05 06-Diane
DR17 -0.65 dB -23.09 dB 6:58 07-Gettin' Together
--------------------------------------------------------------------------------
Number of tracks: 7
Official DR value: DR17
Samplerate: 176400 Hz
Channels: 2
Bits per sample: 24
Bitrate: 5645 kbps
Codec: DSD64
================================================================================
 
Скриншот спектра частот
Источник (релизер): pssacd
 
Состав
Art Pepper — alto saxophone; tenor saxophone
Conte Candoli — trumpet
Wynton Kelly — piano
Paul Chambers — bass
Jimmy Cobb — drums
 
Об исполнителе (группе)
Arthur Edward Pepper, Jr. (September 1, 1925 – June 15, 1982) was an American alto saxophonist and clarinetist.
 
Об альбоме (сборнике)
Gettin' Together is a 1960 jazz album by saxophonist Art Pepper playing with Conte Candoli, Wynton Kelly, Paul Chambers and Jimmy Cobb.
The sleeve notes (by Martin Williams) describe the album as 'a sort of sequel to the earlier Art Pepper Meets the Rhythm Section' which also featured Miles Davis rhythm section of its time.
Any questions - support@pro-jazz.com.
Есть вопросы - support@pro-jazz.com
04:09
224
Нет комментариев. Ваш будет первым!