Поиск

[SACD-R][DSD] Robert Len - Fragile (2xHD) - 2014 (Jazz)

[SACD-R][DSD] Robert Len - Fragile (2xHD) - 2014 (Jazz)
Битрейт аудио:
lossless
Треклист:
Robert Len / Fragile
Формат записи/Источник записи: [DSD][SACD-R]
Наличие водяных знаков: Нет
Издание: 2xHD
Год издания/переиздания диска: 2014
Жанр: Jazz
Издатель (лейбл): 2xHD
Продолжительность: 00:43:36
Наличие сканов в содержимом раздачи: Буклет PDF
Треклист:
01 - Amoureuse (4:02)
02 - Brasilia (3:28)
03 - Fragile (3:36)
04 - Homage to Q (3:34)
05 - Il volo (2:52)
06 - Pavane (3:41)
07 - Il faudra leur dire (3:27)
08 - Oh, my love (3:08)
09 - Romanza, from Guitar Concertino Op. 72 (3:41)
10 - Walking in the Kalahari (3:45)
11 - Through a Window (3:05)
12 - Brasilia Suite (5:16)
Контейнер: ISO (*.iso)
Тип рипа: image+.cue
Разрядность: 64(2,8 MHz/1 Bit)
Формат: DST64
Количество каналов: 2.0
 
Лог проверки качества
foobar2000 1.3.9 / Dynamic Range Meter 1.1.1
log date: 2017-04-15 10:10:36
--------------------------------------------------------------------------------
Analyzed: Robert Len / Fragile (2014)
--------------------------------------------------------------------------------
DR Peak RMS Duration Track
--------------------------------------------------------------------------------
DR9 -6.25 dB -18.62 dB 4:02 01-Amoureuse
DR11 -6.35 dB -21.09 dB 3:28 02-Brasilia
DR10 -6.59 dB -21.10 dB 3:36 03-Fragile
DR11 -6.25 dB -20.85 dB 3:34 04-Homage to Q
DR9 -6.01 dB -19.24 dB 2:52 05-Il volo
DR11 -6.10 dB -21.98 dB 3:41 06-Pavane Op. 50
DR10 -6.01 dB -20.22 dB 3:27 07-Il faudra leur dire We Must Tell Them
DR11 -11.57 dB -27.87 dB 3:08 08-Oh My Love
DR11 -7.16 dB -23.01 dB 3:41 09-Guitar Concertino in A Minor II. Romanza
DR11 -6.01 dB -19.64 dB 3:45 10-Walking in the Kalahari
DR12 -6.25 dB -20.98 dB 3:05 11-Through a Window
DR11 -6.33 dB -21.26 dB 5:16 12-Brasilia Suite
--------------------------------------------------------------------------------
Number of tracks: 12
Official DR value: DR11
Samplerate: 88200 Hz
Channels: 2
Bits per sample: 24
Bitrate: 5645 kbps
Codec: DSD64
================================================================================
Источник (релизер): http://rutracker.org/forum/viewtopic.php?t=5388312
Приватный:
Нет (DHT включён)
Размер:
1.75 Гб (1,879,664,840 байт) » файлов: 5
Участники:
0 раздают, 0 качают (0 участников всего)
Внешние участники:
5 раздают, 1 качают (6 участников всего) [ Обновить ]
Нет сидеров - пишите личное сообщение M0p94ok. Не нравятся торренты? Участники группы Pro-jazz Club могут заказать прямую ссылку на скачивание из облака.
No seeders - write a personal message to M0p94ok. Don't like torrents? Members of Pro-jazz Club group can order a direct download link from the cloud.
20:49
100
Нет комментариев. Ваш будет первым!