Вы используете незарегистрированную версию компонента "Вкладки"!

Поиск

(Post-Bop, Piano Jazz) Keystone Trio (John Hicks, George Mraz, Idris Muhammad) - Newklear Music: The Songs Of Sonny Rollins - 1997, APE (tracks+.cue), lossless

(Post-Bop, Piano Jazz) Keystone Trio (John Hicks, George Mraz, Idris Muhammad) - Newklear Music: The Songs Of Sonny Rollins - 1997, APE (tracks+.cue), lossless
Треклист:
♦ Keystone Trio (John Hicks, George Mraz, Idris Muhammad) - Newklear Music: The Songs Of Sonny Rollins ♦
Жанр: Post-Bop, Piano Jazz
Страна-производитель диска: USA
Год издания: 1997
Издатель (лейбл): Milestone
Номер по каталогу: MCD-9270-2
Аудиокодек: APE (*.ape)
Тип рипа: tracks+.cue
Битрейт аудио: lossless
Продолжительность: 00:58:32
Источник (релизер): Рип с диска.
Наличие сканов в содержимом раздачи: да
Треклист:
01. O. T. Y. O. G. [05:31]
02. Times Slimes [08:19]
03. Wynton [07:50]
04. Here's to the People [05:32]
05. Airegin [06:50]
06. Tell Me You Love Me [06:01]
07. Silk 'n' Satin [06:30]
08. Kids Know [04:33]
09. Love Note for Sonny [07:23]
 
Лог создания рипа
Exact Audio Copy V1.0 beta 3 from 29. August 2011
EAC extraction logfile from 16. May 2013, 15:27
Keystone Trio / Newklear Music
Used drive : Optiarc DVD RW AD-5200A Adapter: 0 ID: 0
Read mode : Secure
Utilize accurate stream : Yes
Defeat audio cache : Yes
Make use of C2 pointers : No
Read offset correction : 48
Overread into Lead-In and Lead-Out : No
Fill up missing offset samples with silence : Yes
Delete leading and trailing silent blocks : No
Null samples used in CRC calculations : Yes
Used interface : Native Win32 interface for Win NT & 2000
Gap handling : Appended to previous track
Used output format : User Defined Encoder
Selected bitrate : 128 kBit/s
Quality : High
Add ID3 tag : No
Command line compressor : F:\Program Files\Monkey's Audio\wapet.exe
Additional command line options : %dest% -t "Genre=%genre%" -t "Artist=%artist%" -t "Title=%title%" -t "Album=%albumtitle%" -t "Year=%year%" -t "Track=%tracknr%" -t "Comment=%comment%" mac.exe %source% %dest% -c3000
TOC of the extracted CD
Track | Start | Length | Start sector | End sector
---------------------------------------------------------
1 | 0:00.00 | 5:31.44 | 0 | 24868
2 | 5:31.44 | 8:19.00 | 24869 | 62293
3 | 13:50.44 | 7:50.33 | 62294 | 97576
4 | 21:41.02 | 5:32.35 | 97577 | 122511
5 | 27:13.37 | 6:50.25 | 122512 | 153286
6 | 34:03.62 | 6:01.35 | 153287 | 180396
7 | 40:05.22 | 6:30.14 | 180397 | 209660
8 | 46:35.36 | 4:33.00 | 209661 | 230135
9 | 51:08.36 | 7:23.52 | 230136 | 263412
Track 1
Filename F:\1997.Keystone Trio - Newklear Music\01. O. T. Y. O. G..wav
Pre-gap length 0:00:02.00
Peak level 98.8 %
Extraction speed 2.6 X
Track quality 100.0 %
Test CRC C441A63C
Copy CRC C441A63C
Track not present in AccurateRip database
Copy OK
Track 2
Filename F:\1997.Keystone Trio - Newklear Music\02. Times Slimes.wav
Peak level 87.7 %
Extraction speed 2.8 X
Track quality 99.9 %
Test CRC 3ECCE851
Copy CRC 3ECCE851
Track not present in AccurateRip database
Copy OK
Track 3
Filename F:\1997.Keystone Trio - Newklear Music\03. Wynton.wav
Peak level 57.2 %
Extraction speed 3.1 X
Track quality 99.9 %
Test CRC E2E47F7B
Copy CRC E2E47F7B
Track not present in AccurateRip database
Copy OK
Track 4
Filename F:\1997.Keystone Trio - Newklear Music\04. Here's to the People.wav
Peak level 99.6 %
Extraction speed 3.5 X
Track quality 100.0 %
Test CRC F85BB497
Copy CRC F85BB497
Track not present in AccurateRip database
Copy OK
Track 5
Filename F:\1997.Keystone Trio - Newklear Music\05. Airegin.wav
Peak level 88.7 %
Extraction speed 3.4 X
Track quality 99.9 %
Test CRC B53EB145
Copy CRC B53EB145
Track not present in AccurateRip database
Copy OK
Track 6
Filename F:\1997.Keystone Trio - Newklear Music\06. Tell Me You Love Me.wav
Peak level 91.7 %
Extraction speed 4.0 X
Track quality 100.0 %
Test CRC 84A18F83
Copy CRC 84A18F83
Track not present in AccurateRip database
Copy OK
Track 7
Filename F:\1997.Keystone Trio - Newklear Music\07. Silk 'n' Satin.wav
Peak level 70.6 %
Extraction speed 4.2 X
Track quality 100.0 %
Test CRC 4FA535D6
Copy CRC 4FA535D6
Track not present in AccurateRip database
Copy OK
Track 8
Filename F:\1997.Keystone Trio - Newklear Music\08. Kids Know.wav
Peak level 84.1 %
Extraction speed 4.2 X
Track quality 100.0 %
Test CRC DE384047
Copy CRC DE384047
Track not present in AccurateRip database
Copy OK
Track 9
Filename F:\1997.Keystone Trio - Newklear Music\09. Love Note for Sonny.wav
Peak level 75.1 %
Extraction speed 4.6 X
Track quality 100.0 %
Test CRC 53C758C7
Copy CRC 53C758C7
Track not present in AccurateRip database
Copy OK
None of the tracks are present in the AccurateRip database
No errors occurred
End of status report
==== Log checksum 7C9318277A20C3FDD90541137BD246903FAFDAC287E76D81A46E54EB92010129 ====
 
Содержание индексной карты (.CUE)
REM GENRE Jazz
REM DATE 1997
REM DISCID 690DB809
REM COMMENT "ExactAudioCopy v1.0b3"
PERFORMER "Keystone Trio"
TITLE "Newklear Music"
FILE "01. O. T. Y. O. G..wav" WAVE
TRACK 01 AUDIO
TITLE "O. T. Y. O. G."
PERFORMER "Keystone Trio"
FLAGS DCP
INDEX 01 00:00:00
FILE "02. Times Slimes.wav" WAVE
TRACK 02 AUDIO
TITLE "Times Slimes"
PERFORMER "Keystone Trio"
FLAGS DCP
INDEX 01 00:00:00
FILE "03. Wynton.wav" WAVE
TRACK 03 AUDIO
TITLE "Wynton"
PERFORMER "Keystone Trio"
FLAGS DCP
INDEX 01 00:00:00
FILE "04. Here's to the People.wav" WAVE
TRACK 04 AUDIO
TITLE "Here's to the People"
PERFORMER "Keystone Trio"
FLAGS DCP
INDEX 01 00:00:00
FILE "05. Airegin.wav" WAVE
TRACK 05 AUDIO
TITLE "Airegin"
PERFORMER "Keystone Trio"
FLAGS DCP
INDEX 01 00:00:00
FILE "06. Tell Me You Love Me.wav" WAVE
TRACK 06 AUDIO
TITLE "Tell Me You Love Me"
PERFORMER "Keystone Trio"
FLAGS DCP
INDEX 01 00:00:00
FILE "07. Silk 'n' Satin.wav" WAVE
TRACK 07 AUDIO
TITLE "Silk 'n' Satin"
PERFORMER "Keystone Trio"
FLAGS DCP
INDEX 01 00:00:00
FILE "08. Kids Know.wav" WAVE
TRACK 08 AUDIO
TITLE "Kids Know"
PERFORMER "Keystone Trio"
FLAGS DCP
INDEX 01 00:00:00
FILE "09. Love Note for Sonny.wav" WAVE
TRACK 09 AUDIO
TITLE "Love Note for Sonny"
PERFORMER "Keystone Trio"
FLAGS DCP
INDEX 01 00:00:00
 
Состав
Personnel:
John Hicks - p
George Mraz - b
Idris Muhammad - dr
Any questions - support@pro-jazz.com.
Есть вопросы - support@pro-jazz.com
20:36
212
Нет комментариев. Ваш будет первым!