Вы используете незарегистрированную версию компонента "Вкладки"!

Поиск

(Post-Bop, Free Jazz, British Jazz) Graham Collier Septet / Graham Collier Music - Deep Dark Blue Centre, Portraits, The Alternate Mosaics (2CD) - 2008, FLAC (tracks+.cue) lossless

Треклист:
Graham Collier Septet / Graham Collier Music / Deep Dark Blue Centre, Portraits, The Alternate Mosaics (2CD)
Жанр: Post-Bop, Free Jazz, British Jazz
Страна-производитель диска: UK
Год издания диска: 2008
Издатель (лейбл): BGO Records
Номер по каталогу: BGOCD822
Страна: UK
Аудио кодек: FLAC (*.flac)
Тип рипа: tracks+.cue
Битрейт аудио: lossless
Продолжительность: 125:51
Источник (релизер): what.cd
Наличие сканов в содержимом раздачи: нет
Треклист:
CD1:
1. Blue Walls
2. El Miklos
3. Hirayoshi Suite
4. Crumblin' Cookie
5. Conversations
6. Deep Dark Blue Centre
7. And Now For Something Completely Different, Part One.
CD2:
1. And Now For Something Completely Different, Part Two
2. Portraits One
3. The Alternate Mosaics Part 1 Theme 1
4. The Alternate Mosaics Part 2 Theme 2
5. The Alternate Mosaics Part 3 Theme 6
6. The Alternate Mosaics Part 4 Theme 8.
Deep Dark Blue Centre (CD1.01...CD1.06)
Portraits (CD1.07...CD2.02)
The Alternate Mosaics (CD2.03...CD2.06)
 
Лог создания рипа

 
CD1
Exact Audio Copy V0.99 prebeta 5 from 4. May 2009
EAC extraction logfile from 26. August 2010, 19:25
Graham Collier Septet / Deep Dark Blue Centre - Portraits - The Alternate Mosaics (Disc 1 of 2)
Used drive : SlimtypeDVD A DS8A3S Adapter: 1 ID: 0
Read mode : Secure
Utilize accurate stream : Yes
Defeat audio cache : Yes
Make use of C2 pointers : No
Read offset correction : 6
Overread into Lead-In and Lead-Out : No
Fill up missing offset samples with silence : Yes
Delete leading and trailing silent blocks : No
Null samples used in CRC calculations : Yes
Used interface : Installed external ASPI interface
Gap handling : Appended to previous track
Used output format : User Defined Encoder
Selected bitrate : 320 kBit/s
Quality : High
Add ID3 tag : No
Command line compressor : C:\Program Files\Exact Audio Copy\Flac\flac.exe
Additional command line options : -V -8 -T "artist=%a" -T "title=%t" -T "album=%g" -T "date=%y" -T "tracknumber=%n" -T "genre=%m" %s
TOC of the extracted CD
Track | Start | Length | Start sector | End sector
---------------------------------------------------------
1 | 0:00.00 | 4:38.00 | 0 | 20849
2 | 4:38.00 | 6:59.64 | 20850 | 52338
3 | 11:37.64 | 6:02.68 | 52339 | 79556
4 | 17:40.57 | 5:28.51 | 79557 | 104207
5 | 23:09.33 | 6:51.19 | 104208 | 135051
6 | 30:00.52 | 13:32.25 | 135052 | 195976
7 | 43:33.02 | 16:51.59 | 195977 | 271860
Track 1
Filename C:\EAC Rips\01 - Deep Dark Blue Centre - Blue Walls.wav
Pre-gap length 0:00:02.00
Peak level 89.0 %
Track quality 100.0 %
Test CRC 683B3080
Copy CRC 683B3080
Track not present in AccurateRip database
Copy OK
Track 2
Filename C:\EAC Rips\02 - Deep Dark Blue Centre - El Miklos.wav
Pre-gap length 0:00:06.45
Peak level 89.0 %
Track quality 100.0 %
Test CRC 7DD617B2
Copy CRC 7DD617B2
Track not present in AccurateRip database
Copy OK
Track 3
Filename C:\EAC Rips\03 - Deep Dark Blue Centre - Hirayoshi Suite.wav
Pre-gap length 0:00:07.67
Peak level 89.0 %
Track quality 100.0 %
Test CRC 22BBBDF7
Copy CRC 22BBBDF7
Track not present in AccurateRip database
Copy OK
Track 4
Filename C:\EAC Rips\04 - Deep Dark Blue Centre - Crumblin' Cookie.wav
Pre-gap length 0:00:06.12
Peak level 89.0 %
Track quality 100.0 %
Test CRC AF5C30F5
Copy CRC AF5C30F5
Track not present in AccurateRip database
Copy OK
Track 5
Filename C:\EAC Rips\05 - Deep Dark Blue Centre - Conversations.wav
Pre-gap length 0:00:04.59
Peak level 89.0 %
Track quality 100.0 %
Test CRC D8B671C9
Copy CRC D8B671C9
Track not present in AccurateRip database
Copy OK
Track 6
Filename C:\EAC Rips\06 - Deep Dark Blue Centre - Deep Dark Blue Centre.wav
Pre-gap length 0:00:07.17
Peak level 89.0 %
Track quality 100.0 %
Test CRC 8757C650
Copy CRC 8757C650
Track not present in AccurateRip database
Copy OK
Track 7
Filename C:\EAC Rips\07 - Portraits - And Now For Something Completely Different Part One.wav
Pre-gap length 0:00:04.58
Peak level 79.4 %
Track quality 99.9 %
Test CRC 515A72C4
Copy CRC 515A72C4
Track not present in AccurateRip database
Copy OK
None of the tracks are present in the AccurateRip database
No errors occurred
End of status report
 
CD2
Exact Audio Copy V0.99 prebeta 5 from 4. May 2009
EAC extraction logfile from 5. September 2010, 14:02
Graham Collier Septet / Deep Dark Blue Centre - Portraits - The Alternate Mosaics (Disc 2 of 2)
Used drive : SlimtypeDVD A DS8A3S Adapter: 1 ID: 0
Read mode : Secure
Utilize accurate stream : Yes
Defeat audio cache : Yes
Make use of C2 pointers : No
Read offset correction : 6
Overread into Lead-In and Lead-Out : No
Fill up missing offset samples with silence : Yes
Delete leading and trailing silent blocks : No
Null samples used in CRC calculations : Yes
Used interface : Installed external ASPI interface
Gap handling : Appended to previous track
Used output format : User Defined Encoder
Selected bitrate : 320 kBit/s
Quality : High
Add ID3 tag : No
Command line compressor : C:\Program Files\Exact Audio Copy\Flac\flac.exe
Additional command line options : -V -8 -T "artist=%a" -T "title=%t" -T "album=%g" -T "date=%y" -T "tracknumber=%n" -T "genre=%m" %s
TOC of the extracted CD
Track | Start | Length | Start sector | End sector
---------------------------------------------------------
1 | 0:00.00 | 10:03.29 | 0 | 45253
2 | 10:03.29 | 11:03.60 | 45254 | 95038
3 | 21:07.14 | 7:53.10 | 95039 | 130523
4 | 29:00.24 | 14:26.34 | 130524 | 195507
5 | 43:26.58 | 11:23.09 | 195508 | 246741
6 | 54:49.67 | 10:36.61 | 246742 | 294502
Track 1
Filename C:\EAC Rips\01 - Portraits - And Now For Something Completely Different Part Two.wav
Pre-gap length 0:00:02.00
Peak level 74.9 %
Track quality 100.0 %
Test CRC 6330B23B
Copy CRC 6330B23B
Track not present in AccurateRip database
Copy OK
Track 2
Filename C:\EAC Rips\02 - Portraits - Portraits One.wav
Pre-gap length 0:00:04.58
Peak level 69.8 %
Track quality 99.9 %
Test CRC 105DE0A1
Copy CRC 105DE0A1
Track not present in AccurateRip database
Copy OK
Track 3
Filename C:\EAC Rips\03 - The Alternate Mosaics - Part 1 Theme 1.wav
Pre-gap length 0:00:07.10
Peak level 89.0 %
Track quality 100.0 %
Test CRC 1AB36C2C
Copy CRC 1AB36C2C
Track not present in AccurateRip database
Copy OK
Track 4
Filename C:\EAC Rips\04 - The Alternate Mosaics - Part 2 Theme 2.wav
Pre-gap length 0:00:00.21
Peak level 89.0 %
Track quality 100.0 %
Test CRC F596E76F
Copy CRC F596E76F
Track not present in AccurateRip database
Copy OK
Track 5
Filename C:\EAC Rips\05 - The Alternate Mosaics - Part 3 Theme 6.wav
Peak level 89.0 %
Track quality 100.0 %
Test CRC 0862B0C0
Copy CRC 0862B0C0
Track not present in AccurateRip database
Copy OK
Track 6
Filename C:\EAC Rips\06 - The Alternate Mosaics - Part 4 Theme 8.wav
Peak level 89.0 %
Track quality 100.0 %
Test CRC 135A908B
Copy CRC 135A908B
Track not present in AccurateRip database
Copy OK
None of the tracks are present in the AccurateRip database
No errors occurred
End of status report
 
Содержание индексной карты (.CUE)

 
CD1
REM DISCID 540E2807
REM COMMENT "ExactAudioCopy v0.99pb5"
FILE "01 - Deep Dark Blue Centre - Blue Walls.wav" WAVE
TRACK 01 AUDIO
INDEX 01 00:00:00
TRACK 02 AUDIO
INDEX 00 04:31:30
FILE "02 - Deep Dark Blue Centre - El Miklos.wav" WAVE
INDEX 01 00:00:00
TRACK 03 AUDIO
INDEX 00 06:51:72
FILE "03 - Deep Dark Blue Centre - Hirayoshi Suite.wav" WAVE
INDEX 01 00:00:00
TRACK 04 AUDIO
INDEX 00 05:56:56
FILE "04 - Deep Dark Blue Centre - Crumblin' Cookie.wav" WAVE
INDEX 01 00:00:00
TRACK 05 AUDIO
INDEX 00 05:23:67
FILE "05 - Deep Dark Blue Centre - Conversations.wav" WAVE
INDEX 01 00:00:00
TRACK 06 AUDIO
INDEX 00 06:44:02
FILE "06 - Deep Dark Blue Centre - Deep Dark Blue Centre.wav" WAVE
INDEX 01 00:00:00
TRACK 07 AUDIO
INDEX 00 13:27:42
FILE "07 - Portraits - And Now For Something Completely Different Part One.wav" WAVE
INDEX 01 00:00:00
 
CD2
REM DISCID 4C0F5606
REM COMMENT "ExactAudioCopy v0.99pb5"
FILE "01 - Portraits - And Now For Something Completely Different Part Two.wav" WAVE
TRACK 01 AUDIO
FLAGS DCP
INDEX 01 00:00:00
TRACK 02 AUDIO
FLAGS DCP
INDEX 00 09:58:46
FILE "02 - Portraits - Portraits One.wav" WAVE
INDEX 01 00:00:00
TRACK 03 AUDIO
FLAGS DCP
INDEX 00 10:56:50
FILE "03 - The Alternate Mosaics - Part 1 Theme 1.wav" WAVE
INDEX 01 00:00:00
TRACK 04 AUDIO
FLAGS DCP
INDEX 00 07:52:64
FILE "04 - The Alternate Mosaics - Part 2 Theme 2.wav" WAVE
INDEX 01 00:00:00
FILE "05 - The Alternate Mosaics - Part 3 Theme 6.wav" WAVE
TRACK 05 AUDIO
FLAGS DCP
INDEX 01 00:00:00
FILE "06 - The Alternate Mosaics - Part 4 Theme 8.wav" WAVE
TRACK 06 AUDIO
FLAGS DCP
INDEX 01 00:00:00
 
Лог проверки качества
d:\>d:\aucdtect -d/-m0 d:\zzz\*.wav
auCDtect: CD records authenticity detector, version 0.8.2
Copyright (c) 2004 Oleg Berngardt. All rights reserved.
Copyright (c) 2004 Alexander Djourik. All rights reserved.
------------------------------------------------------------
Processing file: [01. Deep Dark Blue Centre - Blue Walls.wav]
------------------------------------------------------------
This track looks like CDDA with probability 85%
------------------------------------------------------------
Processing file: [01. Portraits - And Now For Something Completely Different Part Two.wav]
------------------------------------------------------------
This track looks like CDDA with probability 100%
------------------------------------------------------------
Processing file: [02. Deep Dark Blue Centre - El Miklos.wav]
------------------------------------------------------------
This track looks like CDDA with probability 85%
------------------------------------------------------------
Processing file: [02. Portraits - Portraits One.wav]
------------------------------------------------------------
This track looks like CDDA with probability 99%
------------------------------------------------------------
Processing file: [03. Deep Dark Blue Centre - Hirayoshi Suite.wav]
------------------------------------------------------------
This track looks like CDDA with probability 100%
------------------------------------------------------------
Processing file: [03. The Alternate Mosaics - Part 1 Theme 1.wav]
------------------------------------------------------------
This track looks like CDDA with probability 100%
------------------------------------------------------------
Processing file: [04. Deep Dark Blue Centre - Crumblin' Cookie.wav]
------------------------------------------------------------
This track looks like CDDA with probability 99%
------------------------------------------------------------
Processing file: [04. The Alternate Mosaics - Part 2 Theme 2.wav]
------------------------------------------------------------
This track looks like CDDA with probability 100%
------------------------------------------------------------
Processing file: [05. Deep Dark Blue Centre - Conversations.wav]
------------------------------------------------------------
This track looks like CDDA with probability 62%
------------------------------------------------------------
Processing file: [05. The Alternate Mosaics - Part 3 Theme 6.wav]
------------------------------------------------------------
This track looks like CDDA with probability 100%
------------------------------------------------------------
Processing file: [06. Deep Dark Blue Centre - Deep Dark Blue Centre.wav]
------------------------------------------------------------
This track looks like CDDA with probability 62%
------------------------------------------------------------
Processing file: [06. The Alternate Mosaics - Part 4 Theme 8.wav]
------------------------------------------------------------
This track looks like CDDA with probability 100%
------------------------------------------------------------
Processing file: [07. Portraits - And Now For Something Completely Different Part One.wav]
------------------------------------------------------------
This track looks like CDDA with probability 100%
------------------------------------------------------------
Final Conclusion:
------------------------------------------------------------
These tracks looks like CDDA with probability 100%
 
Скриншот спектра частот
Доп. информация:
 
Album Info
2008 BGOCD822
Deep Dark Blue Centre (1967), Portraits (1972), Mosaics (1971)
This is the second chapter in BGO's reissue program of bassist/bandleader Graham Collier's work from the late 1960s and early 1970s. It gives listeners a chance to catch up with some of the most potent British jazz from a period when the music was moving forward at a rate and without a mind for the demands of commerce. Over the course of what were once three LPs, it also plots the course of Collier's development as a composer and bandleader.
If this was music geared towards the demands of cultural enrichment it achieves that aim admirably despite the diversity of styles on offer. Thus the quasi-impressionistic tones of Deep Dark Blue Centre (Disconforme, 1967) echo the work of Gil Evans, albeit with a more rhythmically animated sense. Collier's composerly aims are aided in no small part by his sidemen, with Karl Jenkins's oboe topping things off in some of the ensembles and Dave Aaron's dry alto sax and the always deeply worthwhile trumpet of Harry Beckett outstanding in the solo stakes.
The stark theme of "El Miklos" is made deliciously melancholic by Mike Gibbs's trombone with Aaron (on flute) and Jenkins showing not only their own grasp of color but Collier's burgeoning abilities as an orchestrator. These are points borne out when the tempo goes up and such is the cumulative effect that the issue of continuity is never in any doubt, for all the many colors on the palette. The title track is a relatively more animated effort, but not to the extent that it's detrimental to the cohesion of the overall program.
Even though Collier and the band cut the original version of Mosaics (Disconforme, 1971) prior to Portraits (Disconforme, 1973), it's the latter that follows in this set. Made in 1973, it's an outstanding example of work in the modal idiom. With small groups, Collier had really telling abilities that have been banished to the past by his work with large ensembles in the intervening years, but no matter. Here he manages again to coax maximum mileage and color out of a six piece band, with John Webb's drums underscoring everything nicely.
It's not difficult to see why Collier has chosen to work so often with guitarist Ed Speight over the years. Speight's work on "And Now For Something Completely Different, Part One" is that of a player with highly singular phrasing. His tone also is something to behold, moving as it does towards the margins of jazz guitar with his use of deft picking. The suspended time at the heart of the second part of the same piece allows Speight the space to develop his solo and as per the first part. The lyrical aspect of the music is allowed free rein, aided in no small part by Dick Pearce's background figures on flugelhorn.
Now, there's a lot in a title in the case of The Alternate Mosaics, as this program is not so much another take on the reading of "Mosaics" as it was originally released, as it is a re-examining of the same material. The fact that it was recorded on the same night in the same north London pub is rendered more remarkable by how different this program is in the detail. It's conclusive proof of Collier's contention that a piece of jazz happens in real time, just once. The rolling, boiling reading of "The Alternate Mosaics Part 1 Theme 1" doffs its hat to developments on the American side of the Atlantic, and more specifically to the work of the classic John Coltrane quartet in its rhythmic intensity; but the following "The Alternate Mosaics Part 2 Theme 2" is abundant evidence of how much ground this band could cover while remaining lyrical and the restraint and touch of pianist Geoff Castle.
The fact that all this music was happening at a time when jazz was enduring some sort of commercial nadir highlights how commercial success, together with all the dubious benefits that has to offer, only very rarely goes hand-in-hand with creativity. That lesson is true even now, but what's really good about the present moment is the opportunity it affords us to be exposed to music as trenchant as this.
 
Состав
Harry Beckett: trumpet, flugelhorn (CD1#1,3,4; CD2#3-6)
Kenny Wheeler: trumpet, flugelhorn (CD1#2,5,6);
Dick Pearce: flugelhorn (CD1#7; CD2#1,2);
Dave Aaron: alto sax, flute (CD1#1-6);
Peter Hurt: alto sax (CD1#7, CD2#1,2);
Bob Sydor: alto, tenor saxophones (CD2#3-6;)
Alan Wakeman: tenor, soprano saxophones (CD2#3-6);
Karl Jenkins: baritone sax, oboe (CD1#1-6);
Geoff Castle: piano (CD1#7; CD2#1-6);
Philip Lee: guitar (CD1#1-6);
Ed Speight: guitar (CD1#7; CD2#1,2);
Graham Collier: bass, leader (CD1#1-7; CD2#1-6);
John Marshall: drums (CD1#1-6);
John Webb; drums (CD1#7; CD2 #1-6).
По всем вопросам пишите личное сообщение пользователю M0p94ok.
05:43
198
Нет комментариев. Ваш будет первым!