Вы используете незарегистрированную версию компонента "Вкладки"!

Поиск

(Post-Bop) [CD] Art Pepper - Neon Art: Volume Three - 1981 (2015), FLAC (tracks+.cue), lossless

(Post-Bop) [CD] Art Pepper - Neon Art: Volume Three - 1981 (2015), FLAC (tracks+.cue), lossless
Битрейт аудио:
lossless
Треклист:
Art Pepper - Neon Art: Volume Three
Жанр: Post-Bop
Носитель: CD
Год издания: 1981 (2015)
Издатель (лейбл): Omnivore Recordings
Номер по каталогу: OVCD-49
Аудиокодек: FLAC (*.flac)
Тип рипа: tracks+.cue
Битрейт аудио: lossless
Продолжительность: 00:43:44
Источник (релизер): www
Наличие сканов в содержимом раздачи: нет

Alto Saxophone – Art Pepper
Piano – George Cables
Bass – David Williams (2)
Drums – Carl Burnett

01. Make A List (Make A Wish) (24:40)
02. Everything Happens To Me (08:36)
03. Arthur's Blues (10:27)

 
Лог создания рипа
X Lossless Decoder version 20170729 (150.3)
XLD extraction logfile from 2017-11-29 11:53:59 -0800
Art Pepper / Neon Art Volume 3
Used drive : HL-DT-ST DVDRW GS41N (revision UA04)
Media type : Pressed CD
Ripper mode : XLD Secure Ripper
Disable audio cache : OK for the drive with a cache less than 1375KiB
Make use of C2 pointers : NO
Read offset correction : 6
Max retry count : 20
Gap status : Analyzed, Appended
TOC of the extracted CD
Track | Start | Length | Start sector | End sector
---------------------------------------------------------
1 | 00:00:00 | 24:40:26 | 0 | 111025
2 | 24:40:26 | 08:36:23 | 111026 | 149748
3 | 33:16:49 | 10:27:30 | 149749 | 196803
AccurateRip Summary (DiscID: 0006fb6b-00164154-2c0a4003)
Track 01 : OK (v2, confidence 2/2)
Track 02 : OK (v2, confidence 2/2)
Track 03 : OK (v2, confidence 2/2)
->All tracks accurately ripped.
All Tracks
Album gain : -4.43 dB
Peak : 0.988586
Statistics
Read error : 0
Jitter error (maybe fixed) : 0
Retry sector count : 0
Damaged sector count : 0
Track 01
Filename : /Users/kallen/Music/Art Pepper - 2015 - Neon Art Volume 3 [FLAC]/01 Make A List (Make A Wish).flac
Pre-gap length : 00:02:00
Track gain : -4.65 dB
Peak : 0.977264
CRC32 hash (test run) : 78501D1C
CRC32 hash : 78501D1C
CRC32 hash (skip zero) : FC0F1BFC
AccurateRip v1 signature : C28382D0
AccurateRip v2 signature : F7D7EE30
->Accurately ripped (v2, confidence 2/2)
Statistics
Read error : 0
Jitter error (maybe fixed) : 0
Retry sector count : 0
Damaged sector count : 0
Track 02
Filename : /Users/kallen/Music/Art Pepper - 2015 - Neon Art Volume 3 [FLAC]/02 Everything Happens To Me.flac
Track gain : -3.03 dB
Peak : 0.988464
CRC32 hash (test run) : 399A366B
CRC32 hash : 399A366B
CRC32 hash (skip zero) : 9FEC7FD0
AccurateRip v1 signature : 8F8C5568
AccurateRip v2 signature : 95DBDEE6
->Accurately ripped (v2, confidence 2/2)
Statistics
Read error : 0
Jitter error (maybe fixed) : 0
Retry sector count : 0
Damaged sector count : 0
Track 03
Filename : /Users/kallen/Music/Art Pepper - 2015 - Neon Art Volume 3 [FLAC]/03 Arthur's Blues.flac
Track gain : -4.51 dB
Peak : 0.988586
CRC32 hash (test run) : 9DEAA3C1
CRC32 hash : 9DEAA3C1
CRC32 hash (skip zero) : 662A658E
AccurateRip v1 signature : 3EE02E84
AccurateRip v2 signature : 131E297E
->Accurately ripped (v2, confidence 2/2)
Statistics
Read error : 0
Jitter error (maybe fixed) : 0
Retry sector count : 0
Damaged sector count : 0
No errors occurred
End of status report
-----BEGIN XLD SIGNATURE-----
FLJYhLz8CQNU.CPMJt0cZUJWaVItgUAqAAaN.Rg0J112Wvuo3KjyFtsecX9Sr6pTW5LzWXq8XtA68lCANtEb6cJFLVs1w2Z_sktZDBS
-----END XLD SIGNATURE-----
 
Содержание индексной карты (.CUE)
TITLE "Neon Art Volume 3"
PERFORMER "Art Pepper"
REM GENRE "Jazz"
REM DATE "2015"
REM DISCID 2C0A4003
REM REPLAYGAIN_ALBUM_GAIN -4.43 dB
REM REPLAYGAIN_ALBUM_PEAK 0.988586
FILE "01 Make A List (Make A Wish).flac" WAVE
TRACK 01 AUDIO
TITLE "Make A List (Make A Wish)"
ISRC IFPI000240<6
REM REPLAYGAIN_TRACK_GAIN -4.65 dB
REM REPLAYGAIN_TRACK_PEAK 0.977264
INDEX 01 00:00:00
FILE "02 Everything Happens To Me.flac" WAVE
TRACK 02 AUDIO
TITLE "Everything Happens To Me"
ISRC QMWHB1401003
REM REPLAYGAIN_TRACK_GAIN -3.03 dB
REM REPLAYGAIN_TRACK_PEAK 0.988464
INDEX 01 00:00:00
FILE "03 Arthur's Blues.flac" WAVE
TRACK 03 AUDIO
TITLE "Arthur's Blues"
ISRC QMWHB1401004
REM REPLAYGAIN_TRACK_GAIN -4.51 dB
REM REPLAYGAIN_TRACK_PEAK 0.988586
INDEX 01 00:00:00
Any questions - support@pro-jazz.com.
Есть вопросы - support@pro-jazz.com
11:53
128
Нет комментариев. Ваш будет первым!