Поиск

(Post-Bop, Avant-Garde Jazz) George Adams - Don Pullen Quartet - Live at the Village Vanguard - Vol. 2 - 1986, FLAC (tracks+.cue) lossless

Треклист:
George Adams - Don Pullen Quartet - Live at the Village Vanguard - Vol. 2
Жанр: Post-Bop, Avant-Garde Jazz
Страна-производитель диска: Italy
Год издания диска: 1986
Издатель (лейбл): Soul Note Records
Номер по каталогу: SN 121 144-2
Страна: Italy
Аудио кодек: FLAC (*.flac)
Тип рипа: tracks+.cue
Битрейт аудио: lossless
Продолжительность: 58:04
Источник (релизер): собственный рип с оригинального диска
Наличие сканов в содержимом раздачи: да
Треклист:
01. Saturday Night in the Cosmos Pullen 11:24
02. City Gates Adams 17:37
03. The Great Escape Pullen 11:15
04. Big Alice Pullen 17:50
 
Лог создания рипа
Exact Audio Copy V0.99 prebeta 5 from 4. May 2009
EAC extraction logfile from 14. October 2010, 0:13
George Adams-Don Pullen Quartet / Live at the Village Vanguard Vol. 2
Used drive : TSSTcorpCDDVDW SH-S222A Adapter: 1 ID: 0
Read mode : Secure
Utilize accurate stream : Yes
Defeat audio cache : Yes
Make use of C2 pointers : No
Read offset correction : 6
Overread into Lead-In and Lead-Out : No
Fill up missing offset samples with silence : Yes
Delete leading and trailing silent blocks : No
Null samples used in CRC calculations : Yes
Used interface : Native Win32 interface for Win NT & 2000
Gap handling : Appended to previous track
Used output format : User Defined Encoder
Selected bitrate : 768 kBit/s
Quality : High
Add ID3 tag : No
Command line compressor : C:\tool\Audio\Exact Audio Copy\FLAC\FLAC.EXE
Additional command line options : -V -8 -T "ARTIST=%a" -T "TITLE=%t" -T "ALBUM=%g" -T "TRACKNUMBER=%n" -T "GENRE=%m" %s
TOC of the extracted CD
Track | Start | Length | Start sector | End sector
---------------------------------------------------------
1 | 0:00.33 | 11:25.17 | 33 | 51424
2 | 11:25.50 | 17:40.50 | 51425 | 130974
3 | 29:06.25 | 11:15.20 | 130975 | 181619
4 | 40:21.45 | 17:44.50 | 181620 | 261469
Track 1
Filename C:\! RUTRACKER\ru up\George Adams_Don Pullen Quartet - Live at the Village Vanguard Vol. 2\01 - Saturday Night In The Cosmos.wav
Pre-gap length 0:00:02.33
Peak level 85.1 %
Track quality 100.0 %
Test CRC D8D0B272
Copy CRC D8D0B272
Accurately ripped (confidence 3) [FAED0FD7]
Copy OK
Track 2
Filename C:\! RUTRACKER\ru up\George Adams_Don Pullen Quartet - Live at the Village Vanguard Vol. 2\02 - City Gates.wav
Pre-gap length 0:00:02.32
Peak level 65.7 %
Track quality 100.0 %
Test CRC 64C5EB6C
Copy CRC 64C5EB6C
Accurately ripped (confidence 3) [1CC071A8]
Copy OK
Track 3
Filename C:\! RUTRACKER\ru up\George Adams_Don Pullen Quartet - Live at the Village Vanguard Vol. 2\03 - The Great Escape.wav
Pre-gap length 0:00:04.17
Peak level 69.3 %
Track quality 100.0 %
Test CRC 602F5B8F
Copy CRC 602F5B8F
Accurately ripped (confidence 3) [EF209700]
Copy OK
Track 4
Filename C:\! RUTRACKER\ru up\George Adams_Don Pullen Quartet - Live at the Village Vanguard Vol. 2\04 - Big Alice.wav
Pre-gap length 0:00:03.50
Peak level 66.5 %
Track quality 100.0 %
Test CRC C61193F5
Copy CRC C61193F5
Accurately ripped (confidence 4) [4360FF3E]
Copy OK
All tracks accurately ripped
No errors occurred
End of status report
 
Содержание индексной карты (.CUE)
REM GENRE Jazz
REM DATE 1983
REM DISCID 360D9E04
REM COMMENT "ExactAudioCopy v0.99pb5"
CATALOG 0000000000000
PERFORMER "George Adams-Don Pullen Quartet"
TITLE "Live at the Village Vanguard Vol. 2"
FILE "01 - Saturday Night In The Cosmos.wav" WAVE
TRACK 01 AUDIO
TITLE "Saturday Night In The Cosmos"
PERFORMER "George Adams-Don Pullen Quartet"
PREGAP 00:00:33
INDEX 01 00:00:00
TRACK 02 AUDIO
TITLE "City Gates"
PERFORMER "George Adams-Don Pullen Quartet"
INDEX 00 11:22:60
FILE "02 - City Gates.wav" WAVE
INDEX 01 00:00:00
TRACK 03 AUDIO
TITLE "The Great Escape"
PERFORMER "George Adams-Don Pullen Quartet"
INDEX 00 17:36:33
FILE "03 - The Great Escape.wav" WAVE
INDEX 01 00:00:00
TRACK 04 AUDIO
TITLE "Big Alice"
PERFORMER "George Adams-Don Pullen Quartet"
INDEX 00 11:11:45
FILE "04 - Big Alice.wav" WAVE
INDEX 01 00:00:00
Доп. информация:
Recorded Live August 19, 1983 at the Village Vanguard, New York City.
Engineer: Kazunori Sugiyama
Mastered at PhonoComp, Tribiano - Milano
Engineer: Gennaro Carone
 
Об альбоме (сборнике)
The second album taken from a strong performance by the George Adams-Don Pullen Quartet, this set features three compositions by pianist Pullen (including his catchy "Big Alice") and tenorman Adams' "City Gates." The music swings in its own way while being quite unpredictable, intense and sometimes avant-garde. There is nothing sleepy or routine about the chance-taking (and frequently exciting) music.
 
Состав
George Adams - tenor saxophone
Don Pullen - piano
Cameron Brown - bass
Dannie Richmond - drums
По всем вопросам пишите личное сообщение пользователю M0p94ok.
04:06
333
Нет комментариев. Ваш будет первым!