Поиск

(Post-Bop, African Jazz) Abdullah Ibrahim (Dollar Brand) - Zimbabwe {Enja} - 1987, FLAC (tracks+.cue), lossless

(Post-Bop, African Jazz) Abdullah Ibrahim (Dollar Brand) - Zimbabwe {Enja} - 1987, FLAC (tracks+.cue), lossless
Треклист:
Abdullah Ibrahim (Dollar Brand)
Zimbabwe


Жанр: Post-Bop, African Jazz
Год выпуска диска: 1987
Производитель диска: USA (Rhino)
Аудио кодек: FLAC
Тип рипа: tracks+.cue
Битрейт аудио: lossless
Продолжительность: 41:38
Abdullah Ibrahim (Dollar Brand) - piano & soprano sax
Carlos Ward - alto sax & flute
Essiet Okun Essiet - bass
Don Mumford - drums
1. Kramat (A. Ibrahim) - 6:37
2. Guilty (Kahn - Akst - Whiting) - 5:09
3. Bobmella (A. Ibrahim) - 6:26
4. Don't Blame Me (Fields - McHugh) - 3:30
5. Zimbabwe (A. Ibrahim) - 5:27
6. It Never Entered My Mind (R. Rogers - L. Hart) - 5:02
7. For Coltrane, No 11 (A. Ibrahim) - 10:08
Digitally recorded by Carlos Albrecht
Location: Studio Bauer, Ludwigsburg
Date: May 29th, 1983
Produced by Horst Weber
1987, Enja Records
Marketed by Mesa/Bluemoon Recordings, Ltd.
Distributed by Rhino Records, Inc.
R2 79632
 
EAC extraction logfile from 14. December 2008, 21:33
Exact Audio Copy V0.99 prebeta 4 from 23. January 2008
EAC extraction logfile from 14. December 2008, 21:33
Abdullah Ibrahim / Zimbabwe
Used drive : PLEXTOR DVDR PX-760A Adapter: 0 ID: 0
Read mode : Secure
Utilize accurate stream : Yes
Defeat audio cache : Yes
Make use of C2 pointers : No
Read offset correction : 30
Overread into Lead-In and Lead-Out : Yes
Fill up missing offset samples with silence : Yes
Delete leading and trailing silent blocks : No
Null samples used in CRC calculations : Yes
Used interface : Native Win32 interface for Win NT & 2000
Gap handling : Appended to previous track
Used output format : User Defined Encoder
Selected bitrate : 128 kBit/s
Quality : High
Add ID3 tag : No
Command line compressor : C:\Program Files\FLAC\flac.exe
Additional command line options : -8 -V -T "ARTIST=%a" -T "TITLE=%t" -T "ALBUM=%g" -T "DATE=%y" -T "TRACKNUMBER=%n" -T "GENRE=%m" -T "COMMENT=EAC FLAC -8" %s
TOC of the extracted CD
Track | Start | Length | Start sector | End sector
---------------------------------------------------------
1 | 0:00.50 | 6:39.05 | 50 | 29979
2 | 6:39.55 | 5:12.52 | 29980 | 53431
3 | 11:52.32 | 6:29.28 | 53432 | 82634
4 | 18:21.60 | 3:52.50 | 82635 | 100084
5 | 22:14.35 | 5:30.57 | 100085 | 124891
6 | 27:45.17 | 5:05.55 | 124892 | 147821
7 | 32:50.72 | 8:47.43 | 147822 | 187389
Track 1
Filename J:\Abdullah Ibrahim - Zimbabwe (1987) [FLAC]\01 - Kramat.wav
Pre-gap length 0:00:02.50
Peak level 71.8 %
Track quality 100.0 %
Test CRC 5D015A21
Copy CRC 5D015A21
Track not present in AccurateRip database
Copy OK
Track 2
Filename J:\Abdullah Ibrahim - Zimbabwe (1987) [FLAC]\02 - Guilty.wav
Pre-gap length 0:00:04.20
Peak level 89.7 %
Track quality 100.0 %
Test CRC ED77D676
Copy CRC ED77D676
Track not present in AccurateRip database
Copy OK
Track 3
Filename J:\Abdullah Ibrahim - Zimbabwe (1987) [FLAC]\03 - Bombella.wav
Pre-gap length 0:00:04.20
Peak level 99.8 %
Track quality 100.0 %
Test CRC 1F85EE3B
Copy CRC 1F85EE3B
Track not present in AccurateRip database
Copy OK
Track 4
Filename J:\Abdullah Ibrahim - Zimbabwe (1987) [FLAC]\04 - Don't Blame Me.wav
Pre-gap length 0:00:04.10
Peak level 73.3 %
Track quality 100.0 %
Test CRC 1D6BF807
Copy CRC 1D6BF807
Track not present in AccurateRip database
Copy OK
Track 5
Filename J:\Abdullah Ibrahim - Zimbabwe (1987) [FLAC]\05 - Zimbabwe.wav
Pre-gap length 0:00:03.30
Peak level 91.7 %
Track quality 100.0 %
Test CRC B5E49388
Copy CRC B5E49388
Track not present in AccurateRip database
Copy OK
Track 6
Filename J:\Abdullah Ibrahim - Zimbabwe (1987) [FLAC]\06 - It Never Entered My Mind.wav
Pre-gap length 0:00:04.02
Peak level 100.0 %
Track quality 100.0 %
Test CRC DE2DA5E0
Copy CRC DE2DA5E0
Track not present in AccurateRip database
Copy OK
Track 7
Filename J:\Abdullah Ibrahim - Zimbabwe (1987) [FLAC]\07 - For Coltrane, No 11.wav
Pre-gap length 0:00:03.45
Peak level 76.7 %
Track quality 100.0 %
Test CRC 4D5A6ECF
Copy CRC 4D5A6ECF
Track not present in AccurateRip database
Copy OK
None of the tracks are present in the AccurateRip database
No errors occurred
End of status report
Собственный рип с оригинального издания.
В комплекте полный набор сканов PNG/300dpi.
По всем вопросам пишите личное сообщение пользователю M0p94ok.
05:47
303
Нет комментариев. Ваш будет первым!