Вы используете незарегистрированную версию компонента "Вкладки"!

Поиск

(Modern Jazz) Mary Halvorson & Jessica Pavone - On And Off - 2007, FLAC (tracks), lossless

(Modern Jazz) Mary Halvorson & Jessica Pavone - On And Off - 2007, FLAC (tracks), lossless
Треклист:
Mary Halvorson & Jessica Pavone - On And Off
Жанр: Modern Jazz
Год выпуска диска: 2007
Аудио кодек: FLAC
Тип рипа: tracks
Битрейт аудио: lossless
Продолжительность: 38:29
Трэклист:
Crawling;
The Clouds;
Hartford;
Speaking With Silence;
The Wand;
Rods and Cones;
On and Off;
Round;
Untitled;
Gone Dancing;
Revo-Lover;
I Am Fine.
Доп. информация:
Mary Halvorson: guitar, vocals
Jessica Pavone: viola, vocals
 
скрытый текст
By Troy Collins
On and Off documents the ongoing collaboration between guitarist Mary Halvorson and violist Jessica Pavone. Following in the footsteps of their previous duo collaboration, Prairies (Lucky Kitchen, 2005), this intimate studio session presents a similar program of eclectic tunes.
Both former students of composer Anthony Braxton, Halvorson and Pavone continue to perform in his ensembles, those of cornetist and fellow Braxton alumni Taylor Ho Bynum and in their own numerous Brooklyn-based projects. Left to their own devices, Halvorson and Pavone split writing duties, demonstrating a predilection for areas rarely explored in contemporary improvised music.
Blending disarmingly simple folk melodies with aggressively dissonant free-form interjections, the duo stretches genre conventions with irreverent wit—from poignant Fahey-esque motifs to angular Bartokian dissonances. Bittersweet themes are sporadically amplified when the spare melancholy of acoustic chamber music is invigorated by the electric intensity of indie rock.
Pavone's sinewy viola sings with forlorn resonance; robust and full-bodied, it sighs crestfallen one minute, caterwauling with puckish insouciance the next. Halvorson, a stunning talent on the rise, employs a timbre, tone and phrasing on guitar all her own. Her angular, repeated refrains explore uncharted territory with a mixture of pliant warmth and prickly assertiveness. From pointillist, acoustic mutterings to hard-scrabble, distorted scrawl, her singular approach is utterly unique.
Guitar and viola are not their only instruments, as four of the tunes feature their haunting vocals. Blending in polyphonic harmony, their delivery beguiles with unadorned emotional honesty. There is no pretension to their plainsong; pure and raw in its lack of artifice, it simply is.
Whether sabotaging the tender melodic fragments of "Hartford" with apocalyptic bursts of free jazz skronk, plying yearning folk melodies and poetic vocal refrains on the title track or careening through the knotty, kaleidoscopic variations of "The Wand," Halvorson and Pavone move from tuneful to acerbic with ease.
On and Off is yet another superlative document in the continuing development of the world's most fertile creative improvised music scene. No sleep 'til Brooklyn indeed.
 
скрытый текст
Exact Audio Copy V0.99 prebeta 3 from 28. July 2007
EAC extraction logfile from 1. December 2008, 1:29
Mary Halvorson & Jessica Pavone / On And Off
Used drive : LITE-ON DVD SOHD-167T Adapter: 0 ID: 3
Read mode : Secure
Utilize accurate stream : Yes
Defeat audio cache : Yes
Make use of C2 pointers : No
Read offset correction : 12
Overread into Lead-In and Lead-Out : No
Fill up missing offset samples with silence : Yes
Delete leading and trailing silent blocks : No
Null samples used in CRC calculations : Yes
Used interface : Native Win32 interface for Win NT & 2000
Gap handling : Appended to previous track
Used output format : User Defined Encoder
Selected bitrate : 320 kBit/s
Quality : High
Add ID3 tag : No
Command line compressor : C:\Program Files\FLAC\flac.exe
Additional command line options : -V -0 -T "artist=%a" -T "title=%t" -T "album=%g" -T "date=%y" -T "tracknumber=%n" -T "genre=%m" %s
TOC of the extracted CD
Track | Start | Length | Start sector | End sector
---------------------------------------------------------
1 | 0:00.00 | 4:32.66 | 0 | 20465
2 | 4:32.66 | 3:37.15 | 20466 | 36755
3 | 8:10.06 | 3:25.50 | 36756 | 52180
4 | 11:35.56 | 2:51.35 | 52181 | 65040
5 | 14:27.16 | 4:52.13 | 65041 | 86953
6 | 19:19.29 | 3:11.17 | 86954 | 101295
7 | 22:30.46 | 1:54.58 | 101296 | 109903
8 | 24:25.29 | 1:52.26 | 109904 | 118329
9 | 26:17.55 | 3:02.01 | 118330 | 131980
10 | 29:19.56 | 1:46.15 | 131981 | 139945
11 | 31:05.71 | 2:05.70 | 139946 | 149390
12 | 33:11.66 | 5:17.41 | 149391 | 173206
Track 1
Filename E:\MY SEEDS\FLAC\Mary Halvorson & Jessica Pavone - On And Off (FLAC)\01 - Crawling.wav
Pre-gap length 0:00:02.00
Peak level 98.8 %
Track quality 100.0 %
Test CRC AECBF475
Copy CRC AECBF475
Track not present in AccurateRip database
Copy OK
Track 2
Filename E:\MY SEEDS\FLAC\Mary Halvorson & Jessica Pavone - On And Off (FLAC)\02 - The Clouds.wav
Pre-gap length 0:00:02.00
Peak level 98.8 %
Track quality 100.0 %
Test CRC 54E5C875
Copy CRC 54E5C875
Track not present in AccurateRip database
Copy OK
Track 3
Filename E:\MY SEEDS\FLAC\Mary Halvorson & Jessica Pavone - On And Off (FLAC)\03 - Hartford.wav
Pre-gap length 0:00:02.00
Peak level 98.8 %
Track quality 100.0 %
Test CRC 06E8AFC2
Copy CRC 06E8AFC2
Track not present in AccurateRip database
Copy OK
Track 4
Filename E:\MY SEEDS\FLAC\Mary Halvorson & Jessica Pavone - On And Off (FLAC)\04 - Speaking With Silence.wav
Pre-gap length 0:00:02.00
Peak level 98.8 %
Track quality 100.0 %
Test CRC DBDB0FD3
Copy CRC DBDB0FD3
Track not present in AccurateRip database
Copy OK
Track 5
Filename E:\MY SEEDS\FLAC\Mary Halvorson & Jessica Pavone - On And Off (FLAC)\05 - The Wand.wav
Pre-gap length 0:00:02.00
Peak level 98.8 %
Track quality 100.0 %
Test CRC 88D56502
Copy CRC 88D56502
Track not present in AccurateRip database
Copy OK
Track 6
Filename E:\MY SEEDS\FLAC\Mary Halvorson & Jessica Pavone - On And Off (FLAC)\06 - Rods and Cone.wav
Pre-gap length 0:00:02.00
Peak level 98.8 %
Track quality 100.0 %
Test CRC 5FC2AFAF
Copy CRC 5FC2AFAF
Track not present in AccurateRip database
Copy OK
Track 7
Filename E:\MY SEEDS\FLAC\Mary Halvorson & Jessica Pavone - On And Off (FLAC)\07 - On and Off.wav
Pre-gap length 0:00:02.00
Peak level 98.8 %
Track quality 100.0 %
Test CRC 8C418C16
Copy CRC 8C418C16
Track not present in AccurateRip database
Copy OK
Track 8
Filename E:\MY SEEDS\FLAC\Mary Halvorson & Jessica Pavone - On And Off (FLAC)\08 - Round.wav
Pre-gap length 0:00:02.00
Peak level 98.8 %
Track quality 100.0 %
Test CRC DD7FA363
Copy CRC DD7FA363
Track not present in AccurateRip database
Copy OK
Track 9
Filename E:\MY SEEDS\FLAC\Mary Halvorson & Jessica Pavone - On And Off (FLAC)\09 - Untitled.wav
Pre-gap length 0:00:02.00
Peak level 98.8 %
Track quality 100.0 %
Test CRC C81D99D9
Copy CRC C81D99D9
Track not present in AccurateRip database
Copy OK
Track 10
Filename E:\MY SEEDS\FLAC\Mary Halvorson & Jessica Pavone - On And Off (FLAC)\10 - Gone Dancing.wav
Pre-gap length 0:00:02.00
Peak level 98.8 %
Track quality 100.0 %
Test CRC 75B6C956
Copy CRC 75B6C956
Track not present in AccurateRip database
Copy OK
Track 11
Filename E:\MY SEEDS\FLAC\Mary Halvorson & Jessica Pavone - On And Off (FLAC)\11 - Revo-Lover.wav
Pre-gap length 0:00:02.00
Peak level 98.8 %
Track quality 100.0 %
Test CRC B36B23AD
Copy CRC B36B23AD
Track not present in AccurateRip database
Copy OK
Track 12
Filename E:\MY SEEDS\FLAC\Mary Halvorson & Jessica Pavone - On And Off (FLAC)\12 - I Am Fine.wav
Pre-gap length 0:00:02.00
Peak level 98.8 %
Track quality 100.0 %
Test CRC 825FF2C1
Copy CRC 825FF2C1
Track not present in AccurateRip database
Copy OK
None of the tracks are present in the AccurateRip database
No errors occurred
End of status report
Any questions -> support@pro-jazz.com. По всем вопросам пишите -> support@pro-jazz.com
10:25
164
Нет комментариев. Ваш будет первым!