Вы используете незарегистрированную версию компонента "Вкладки"!

Поиск

(Modern Jazz, Beyond Jazz) Mary Halvorson, Jessica Pavone - Thin Air - 2009, FLAC (image+.cue), lossless

(Modern Jazz, Beyond Jazz) Mary Halvorson, Jessica Pavone - Thin Air - 2009, FLAC (image+.cue), lossless
Треклист:
Mary Halvorson, Jessica Pavone - Thin Air
Жанр: Modern Jazz, Beyond Jazz
Год выпуска диска: 2009
Производитель диска: Thirsty Ear
Аудио кодек: FLAC
Тип рипа: image+.cue
Битрейт аудио: lossless
Продолжительность: 36:38
Трэклист:
For You Or Them;
Thin Air;
Juice;
Barber;
Sinking;
Ten Years;
Lullaby;
Goodnight.
Mary Halvorson: electric guitar, vocals;
Jessica Pavone: viola, vocals.
Доп. информация:
 
By Farrell Lowe
The music of guitarist Mary Halvorson and violist Jessica Pavone is immediately galvanizing but comfortable, unpredictable yet composed, powerful yet subtle, vulnerable and courageous. In the rarified air of duet recordings where there are few places to hide, the music's context becomes a powerful resonator for artistic values. Thin Air is the third release by the duo, and is a rich document of the evolutionary progress their music has reached since the release of their first effort, Prairies (Lucky Kitchen, 2005).
This music is refined and carefully distilled much like a fine single malt Scotch from the rugged shores of the Highlands. With each listen there is more depth, subtlety, complexity, and harmonic hues to ponder and enjoy. Overall, there is a consistently stark and revealing quality to this music that is very attractive, even though every piece has its own distinctive nature and is driven by an individual logic. Nothing has been wasted or added to unnecessarily within the individual pieces or, conversely, to the whole.
From a production point of view, Thin Air is reminiscent of the work Robert Fripp's "audio verite" style with the singing group, The Roches, and with Daryl Hall on his Sacred Songs (RCA, 1908) solo album. From a compositional point of view, there is a shadowy likeness to David Sylvian's Blemish (Samadhi Sound, 2003), where he added vocals to Derek Bailey's pre-recorded solo guitar tracks. Another historic reference might be found in the interpretations of Li Po poems recorded by Harry Partch. Halvorson and Pavone follow a similar orbit with their vocal approach in the way they wrap the harmonies of their voices tightly around their instruments' sonorities. Half the tunes on the album feature singing, and the words and harmonies add a whole other dimension to the character of the music.
Both musicians were students of and are now collaborators with Anthony Braxton since finishing their studies at Wesleyan University, and the iconic reedman/composer's influence and spirit permeate the music. In many ways, Thin Air could easily serve as a companion piece to Braxton's 3 Compositions of New Jazz (Delmark, 1968). On both documents there is a sparse purity of melodic and rhythmic line, where the simple nakedness of the music allows the works to stand on their own. Therein lies the courageous and vulnerable nature of the music.
Pavone employs a straightforward approach to the viola, whereas Halvorson makes studied use of various effects in conjunction to her regular guitar tone. Both musicians seem to place a great deal of attention to their instrument's tone, attack, and articulation. This relationship imbues the music with an intimacy that is provocative and disarming.
Thin Air is an invitation to visit Mary Halvorson and Jessica Pavone's private world, and they prove to be very good hosts. This is an eminent document by two powerful new voices of the 21st century.
 
EAC extraction logfile
Exact Audio Copy V0.99 prebeta 5 from 4. May 2009
EAC extraction logfile from 15. August 2009, 17:35
Mary Halvorson and Jessica Pavone / Thin Air
Used drive : SAMSUNG DVD-ROM SD-616T Adapter: 1 ID: 1
Read mode : Secure
Utilize accurate stream : Yes
Defeat audio cache : Yes
Make use of C2 pointers : Yes
Read offset correction : 1182
Overread into Lead-In and Lead-Out : No
Fill up missing offset samples with silence : Yes
Delete leading and trailing silent blocks : No
Null samples used in CRC calculations : Yes
Used interface : Native Win32 interface for Win NT & 2000
Gap handling : Appended to previous track
Used output format : User Defined Encoder
Selected bitrate : 768 kBit/s
Quality : High
Add ID3 tag : No
Command line compressor : C:\Program Files\Exact Audio Copy\FLAC\FLAC.EXE
Additional command line options : -V -8 -T "artist=%a" -T "title=%t" -T "album=%g" -T "date=%y" -T "tracknumber=%n" -T "genre=%m" %s
TOC of the extracted CD
Track | Start | Length | Start sector | End sector
---------------------------------------------------------
1 | 0:00.00 | 4:18.52 | 0 | 19401
2 | 4:18.52 | 7:04.31 | 19402 | 51232
3 | 11:23.08 | 4:38.46 | 51233 | 72128
4 | 16:01.54 | 3:33.24 | 72129 | 88127
5 | 19:35.03 | 5:22.55 | 88128 | 112332
6 | 24:57.58 | 2:51.45 | 112333 | 125202
7 | 27:49.28 | 6:02.12 | 125203 | 152364
8 | 33:51.40 | 2:46.01 | 152365 | 164815
Track 1
Filename E:\EACrips\Mary Halvorson and Jessica Pavone - 2009 - Thin Air\01 - For You or Them.wav
Pre-gap length 0:00:02.00
Peak level 55.4 %
Track quality 100.0 %
Test CRC 112744DB
Copy CRC 112744DB
Accurately ripped (confidence 1) [C5F8A43C]
Copy OK
Track 2
Filename E:\EACrips\Mary Halvorson and Jessica Pavone - 2009 - Thin Air\02 - Thin Air.wav
Peak level 100.0 %
Track quality 100.0 %
Test CRC 027BE261
Copy CRC 027BE261
Accurately ripped (confidence 1) [E7AB584C]
Copy OK
Track 3
Filename E:\EACrips\Mary Halvorson and Jessica Pavone - 2009 - Thin Air\03 - Juice.wav
Peak level 84.3 %
Track quality 100.0 %
Test CRC BE4AAF6C
Copy CRC BE4AAF6C
Accurately ripped (confidence 1) [19718EF7]
Copy OK
Track 4
Filename E:\EACrips\Mary Halvorson and Jessica Pavone - 2009 - Thin Air\04 - Barber.wav
Peak level 67.6 %
Track quality 100.0 %
Test CRC 0EFBB54D
Copy CRC 0EFBB54D
Accurately ripped (confidence 1) [60713C7E]
Copy OK
Track 5
Filename E:\EACrips\Mary Halvorson and Jessica Pavone - 2009 - Thin Air\05 - Sinking.wav
Peak level 85.3 %
Track quality 100.0 %
Test CRC AB454B64
Copy CRC AB454B64
Track not present in AccurateRip database
Copy OK
Track 6
Filename E:\EACrips\Mary Halvorson and Jessica Pavone - 2009 - Thin Air\06 - Ten Years.wav
Peak level 57.0 %
Track quality 100.0 %
Test CRC 829871B9
Copy CRC 829871B9
Track not present in AccurateRip database
Copy OK
Track 7
Filename E:\EACrips\Mary Halvorson and Jessica Pavone - 2009 - Thin Air\07 - Lullaby.wav
Pre-gap length 0:00:00.49
Peak level 80.4 %
Track quality 100.0 %
Test CRC E5AA0C7F
Copy CRC E5AA0C7F
Track not present in AccurateRip database
Copy OK
Track 8
Filename E:\EACrips\Mary Halvorson and Jessica Pavone - 2009 - Thin Air\08 - ...and Goodnight.wav
Peak level 85.4 %
Track quality 100.0 %
Test CRC 0088E2DD
Copy CRC 0088E2DD
Track not present in AccurateRip database
Copy OK
4 track(s) accurately ripped
4 track(s) not present in the AccurateRip database
Some tracks could not be verified as accurate
No errors occurred
End of status report
Any questions -> support@pro-jazz.com. По всем вопросам пишите -> support@pro-jazz.com
13:37
160
Нет комментариев. Ваш будет первым!