Вы используете незарегистрированную версию компонента "Вкладки"!

Поиск

(Modern Creative, Modern Composition, Avant-Garde) Jean Derome - Confitures De Gagaku - 1988, FLAC (tracks+.cue) lossless

Треклист:
Jean Derome / Confitures De Gagaku
Жанр: Modern Creative, Modern Composition, Avant-Garde
Страна-производитель диска: Canada
Год издания диска: 1988
Издатель (лейбл): Les Disques Victo
Номер по каталогу: Victo CD05
Страна: Canada
Аудио кодек: FLAC (*.flac)
Тип рипа: tracks+.cue
Битрейт аудио: lossless
Продолжительность: 52:00
Источник (релизер): what.cd
Наличие сканов в содержимом раздачи: нет
Треклист:
1 Beau 3:10
Lyrics By - Jean Dubuffet
2 Nouveaux Oiseaux 3:35
3 Nuisance 6:37
Lyrics By - Lao Tseu
4 Rouge Elephant 3:09
5 Ouareau (Haikus) 7:18
Lyrics By [Haikus From " Haiku " And " Fourmis Sans Ombre "] - Unknown Artist
6 We Do Not Work Alone 3:57
7 Work 4:07
Lyrics By [Haiku] - Kanjiro Kawai
8 Moon In Me 6:14
Lyrics By [Haiku] - Kanjiro Kawai
9 Immense Fatigue / Lonely Eye Can't See 9:29
Lyrics By [Haiku] - Kanjiro Kawai
10 Saturne (Nouvelle Version) 4:14
 
Лог создания рипа
Отсутствует
 
Содержание индексной карты (.CUE)
PERFORMER "Jean Derome"
TITLE "Confitures de gagaku"
REM GENRE "Avantgarde"
TRACK 01 AUDIO
TITLE "Beau"
PERFORMER "Jean Derome"
INDEX 00 00:00:00
FILE "01. Beau.flac" WAVE
INDEX 01 00:00:00
FILE "02. Nouveaux oiseaux.flac" WAVE
TRACK 02 AUDIO
TITLE "Nouveaux oiseaux"
PERFORMER "Jean Derome"
INDEX 01 00:00:00
FILE "03. Nuisance.flac" WAVE
TRACK 03 AUDIO
TITLE "Nuisance"
PERFORMER "Jean Derome"
INDEX 01 00:00:00
TRACK 04 AUDIO
TITLE "Rouge Elуphant"
PERFORMER "Jean Derome"
INDEX 00 06:36:73
FILE "04. Rouge Elуphant.flac" WAVE
INDEX 01 00:00:00
FILE "05. Ouareau (Haikus).flac" WAVE
TRACK 05 AUDIO
TITLE "Ouareau (Haikus)"
PERFORMER "Jean Derome"
INDEX 01 00:00:00
TRACK 06 AUDIO
TITLE "We Do Not Work Alone"
PERFORMER "Jean Derome"
INDEX 00 07:20:73
FILE "06. We Do Not Work Alone.flac" WAVE
INDEX 01 00:00:00
FILE "07. Work.flac" WAVE
TRACK 07 AUDIO
TITLE "Work"
PERFORMER "Jean Derome"
INDEX 01 00:00:00
TRACK 08 AUDIO
TITLE "Moon in Me"
PERFORMER "Jean Derome"
INDEX 00 04:10:28
FILE "08. Moon in Me.flac" WAVE
INDEX 01 00:00:00
TRACK 09 AUDIO
TITLE "Immense fatigue"
PERFORMER "Jean Derome"
INDEX 00 06:10:00
FILE "09. Immense fatigue.flac" WAVE
INDEX 01 00:00:00
FILE "10. Lonely Eye Can't See.flac" WAVE
TRACK 10 AUDIO
TITLE "Lonely Eye Can't See"
PERFORMER "Jean Derome"
INDEX 01 00:00:00
FILE "11. Saturne (nouvelle version).flac" WAVE
TRACK 11 AUDIO
TITLE "Saturne (nouvelle version)"
PERFORMER "Jean Derome"
INDEX 01 00:00:00
 
Лог проверки качества
d:\>d:\aucdtect -d/-m0 d:\zzz\*.wav
auCDtect: CD records authenticity detector, version 0.8.2
Copyright (c) 2004 Oleg Berngardt. All rights reserved.
Copyright (c) 2004 Alexander Djourik. All rights reserved.
------------------------------------------------------------
Processing file: [01. Beau.wav]
------------------------------------------------------------
This track looks like CDDA with probability 100%
------------------------------------------------------------
Processing file: [02. Nouveaux oiseaux.wav]
------------------------------------------------------------
This track looks like CDDA with probability 100%
------------------------------------------------------------
Processing file: [03. Nuisance.wav]
------------------------------------------------------------
This track looks like CDDA with probability 100%
------------------------------------------------------------
Processing file: [04. Rouge Elгphant.wav]
------------------------------------------------------------
Could not qualify the source of this track.
------------------------------------------------------------
Processing file: [05. Ouareau (Haikus).wav]
------------------------------------------------------------
This track looks like CDDA with probability 100%
------------------------------------------------------------
Processing file: [06. We Do Not Work Alone.wav]
------------------------------------------------------------
Could not qualify the source of this track.
------------------------------------------------------------
Processing file: [07. Work.wav]
------------------------------------------------------------
This track looks like CDDA with probability 100%
------------------------------------------------------------
Processing file: [08. Moon in Me.wav]
------------------------------------------------------------
This track looks like CDDA with probability 100%
------------------------------------------------------------
Processing file: [09. Immense fatigue.wav]
------------------------------------------------------------
Could not qualify the source of this track.
------------------------------------------------------------
Processing file: [10. Lonely Eye Can't See.wav]
------------------------------------------------------------
This track looks like CDDA with probability 43%
------------------------------------------------------------
Processing file: [11. Saturne (nouvelle version).wav]
------------------------------------------------------------
This track looks like CDDA with probability 86%
------------------------------------------------------------
Final Conclusion:
------------------------------------------------------------
These tracks looks like CDDA with probability 100%
 
Скриншот спектра частот
 
Состав
Clarinet, Clarinet [Bass] - Robert Lepage
Double Bass - Pierre Cartier
Drums, Percussion - Pierre Tanguay
Flute - Virginia Spicer
Flute, Piccolo Flute - Allan Laforest
Percussion, Saw - Carol Bergeron
Piano, Synthesizer [Jx3p] - Guillaume Dostaler
Saxophone [Alto], Clarinet, Clarinet [Bass] - Jean-Denis Levasseur
Saxophone [Alto], Flute, Flute [Bass], Vocals, Music By, Producer - Jean Derome
Saxophone [Alto], Synthesizer [Dx100], Recorder [Bass] - Catherine Dostaler
Vocals - Karen Young
По всем вопросам пишите личное сообщение пользователю M0p94ok.
10:43
154
Нет комментариев. Ваш будет первым!