Поиск

(Jazz/Funk/Soul/Jam-band/Hip-Hop) Soulive - Next (2002)/Turn It Out Remixes (2003)/ No Place Like Soul (2007)/ Up Here (2009), APE (image+.cue), lossless

Треклист:
Soulive
- Up Here (2009)/
- No Place Like Soul (2007)/
- Turn It Out Remixes (2003)/
- Next (2002)/
Жанр: Jazz/Funk/Soul/Jam-band/Hip-Hop
Аудио кодек: APE
Тип рипа: image+.cue
Битрейт аудио: lossless
Рипы собственные
 
Soulive - Up Here (2009)
Источник рипа: фирменный диск
Страна производитель: USA / Royal Family
Продолжительность: 40:31
Трэклист:
01. Up Right (3:42)
02. The Swamp (4:40)
03. Too Much (4:19)
04. Backwards Jack (5:07)
05. PJ's (5:08)
06. Tonight (3:32)
07. Hat Trick (5:09)
08. For Granted (4:08)
09. Prototype (4:46)
 
Отчёт EAC
Exact Audio Copy V0.99 prebeta 5 from 4. May 2009
Отчёт EAC об извлечении, выполненном 9. января 2010, 4:12
Soulive / Audio CD
Дисковод: Optiarc DVD RW AD-7543A Adapter: 0 ID: 0
Режим чтения : Достоверность
Использование точного потока : Да
Отключение кэша аудио : Да
Использование указателей C2 : Нет
Коррекция смещения при чтении : 48
Способность читать области Lead-in и Lead-out : Нет
Заполнение пропущенных сэмплов тишиной : Да
Удаление блоков с тишиной в начале и конце : Нет
При вычислениях CRC использовались нулевые сэмплы : Да
Интерфейс : Встроенный Win32-интерфейс для Win NT/2000
Выходной формат : Внутренние WAV-операции
Формат сэмплов : 44.100 Гц; 16 бит; стерео
TOC извлечённого CD
Трек | Старт | Длительность | Начальный сектор | Конечный сектор
---------------------------------------------------------------------
1 | 0:00.00 | 3:42.36 | 0 | 16685
2 | 3:42.36 | 4:40.06 | 16686 | 37691
3 | 8:22.42 | 4:18.59 | 37692 | 57100
4 | 12:41.26 | 5:07.12 | 57101 | 80137
5 | 17:48.38 | 5:08.27 | 80138 | 103264
6 | 22:56.65 | 3:31.50 | 103265 | 119139
7 | 26:28.40 | 5:09.09 | 119140 | 142323
8 | 31:37.49 | 4:08.19 | 142324 | 160942
9 | 35:45.68 | 4:45.46 | 160943 | 182363
Характеристики диапазона извлечения и сообщения об ошибках
Выбранный диапазон
Имя файла F:\Torrent\Новая папка\Soulive - Up Here\Soulive - Audio CD.wav
Пиковый уровень 98.9 %
Качество диапазона 99.9 %
CRC теста 84880542
CRC копии 84880542
Копирование... OK
Ошибок не произошло
AccurateRip: сводка
Трек 1 точное извлечение (доверие 2) [0FC95698]
Трек 2 точное извлечение (доверие 2) [3E1CF921]
Трек 3 точное извлечение (доверие 2) [2BFC8F3C]
Трек 4 точное извлечение (доверие 2) [4DE7F13C]
Трек 5 точное извлечение (доверие 2) [B49362B0]
Трек 6 точное извлечение (доверие 2) [19266817]
Трек 7 точное извлечение (доверие 2) [363D2194]
Трек 8 точное извлечение (доверие 2) [61D64FE8]
Трек 9 точное извлечение (доверие 2) [A4B8A1B0]
Все треки извлечены точно
Конец отчёта
 
Фото1
 
Фото2
 
Soulive - No Place Like Soul (2007)
Источник рипа: фирменный диск
Страна производитель: USA / Concord Music Group
Продолжительность: 53:59
Трэклист:
01. Waterfall 3:59
02. Don't Tell Me 3:52
03. Mary 4:21
04. Comfort 4:01
05. Callin' 4:07
06. Outrage 3:47
l 07. Morning Light 3:41
08. Never Know 4:20
09. Yeah Yeah 4:24
10. If This World Was A Song 4:19
11. One Of Those Days 4:05
12. Bubble 4:11
13. Kim 4:47
 
Отчёт EAC
Exact Audio Copy V0.99 prebeta 5 from 4. May 2009
Отчёт EAC об извлечении, выполненном 9. января 2010, 3:44
Soulive / No Place Like Soul
Дисковод: Optiarc DVD RW AD-7543A Adapter: 0 ID: 0
Режим чтения : Достоверность
Использование точного потока : Да
Отключение кэша аудио : Да
Использование указателей C2 : Нет
Коррекция смещения при чтении : 48
Способность читать области Lead-in и Lead-out : Нет
Заполнение пропущенных сэмплов тишиной : Да
Удаление блоков с тишиной в начале и конце : Нет
При вычислениях CRC использовались нулевые сэмплы : Да
Интерфейс : Встроенный Win32-интерфейс для Win NT/2000
Выходной формат : Внутренние WAV-операции
Формат сэмплов : 44.100 Гц; 16 бит; стерео
TOC извлечённого CD
Трек | Старт | Длительность | Начальный сектор | Конечный сектор
---------------------------------------------------------------------
1 | 0:00.00 | 3:59.00 | 0 | 17924
2 | 3:59.00 | 3:52.39 | 17925 | 35363
3 | 7:51.39 | 4:21.63 | 35364 | 55001
4 | 12:13.27 | 4:01.17 | 55002 | 73093
5 | 16:14.44 | 4:07.47 | 73094 | 91665
6 | 20:22.16 | 3:47.49 | 91666 | 108739
7 | 24:09.65 | 3:41.67 | 108740 | 125381
8 | 27:51.57 | 4:20.01 | 125382 | 144882
9 | 32:11.58 | 4:24.26 | 144883 | 164708
10 | 36:36.09 | 4:19.30 | 164709 | 184163
11 | 40:55.39 | 4:05.10 | 184164 | 202548
12 | 45:00.49 | 4:11.60 | 202549 | 221433
13 | 49:12.34 | 4:47.04 | 221434 | 242962
Характеристики диапазона извлечения и сообщения об ошибках
Выбранный диапазон
Имя файла F:\Torrent\Новая папка\Soulive - No Place Like Soul\Soulive - No Place Like Soul.wav
Пиковый уровень 97.7 %
Качество диапазона 100.0 %
CRC теста 6D13873D
CRC копии 6D13873D
Копирование... OK
Ошибок не произошло
AccurateRip: сводка
Трек 1 точное извлечение (доверие 5) [C7EEAE38]
Трек 2 точное извлечение (доверие 5) [7D38E3A5]
Трек 3 точное извлечение (доверие 5) [A5FF4585]
Трек 4 точное извлечение (доверие 5) [070368C5]
Трек 5 точное извлечение (доверие 5) [1CBD1968]
Трек 6 точное извлечение (доверие 5) [E909ABC9]
Трек 7 точное извлечение (доверие 5) [8321AA96]
Трек 8 точное извлечение (доверие 5) [6A3869DB]
Трек 9 точное извлечение (доверие 5) [63702511]
Трек 10 точное извлечение (доверие 5) [2AEF1CB3]
Трек 11 точное извлечение (доверие 5) [B0D7B55A]
Трек 12 точное извлечение (доверие 5) [822FA0AE]
Трек 13 точное извлечение (доверие 5) [E3651C8A]
Все треки извлечены точно
Конец отчёта
 
Фото1
 
Фото2
 
Back
 
Front
 
Soulive - Turn It Out Remixes (2003)
Источник рипа: нарезка с фирмы
Жанр: Rap, Hip-Hop, Future Jazz, Broken Beat, Downtempo
Продолжительность: 50:21
Трэклист:
01. Intro - Remix - Mister Rourke
02. Tabasco Remix - (Featuring - Wordsworth), Remix - Neal Evans
03. Doin' Something Remix - (Featuring - Jurassic 5), Remix - Adam Deitch
04. Cash's Dream - Remix - DJ Spinna
05. Turn It Out Remix - DJ Krush
06. S.O.U.L.I.V.E - (Featuring - Edreys Wajed), Remix - Alan Evans
07. Steppin' - Remix - The Beatnuts
08. Arruga De Agua Remix - (Featuring - Ekene Nwokoye), Remix - Tycoon
09. Nealization Remix - Dub Fader
10. Rudy's Way - Remix Neal Evans
11. Azucar Remix - (Featuring - J-Live)
12. Steppin' Remix 2000
13. Uncle Junior Remix
Это диск ремиксов на их альбом "Turn It Out", причем делают ремиксы как приглашенные диджеи так и сами участники Soulive. Плюс много приглашенных рэпперов.
 
Отчёт EAC
Exact Audio Copy V0.99 prebeta 4 from 23. January 2008
Отчёт EAC об извлечении, выполненном 20. апреля 2009, 23:28
v/a / Soulive - Turn It Out Remixed
Дисковод: Optiarc DVD RW AD-7543A Adapter: 0 ID: 0
Режим чтения : Достоверность
Использование точного потока : Да
Отключение кэша аудио : Да
Использование указателей C2 : Нет
Коррекция смещения при чтении : 48
Способность читать области Lead-in и Lead-out : Нет
Заполнение пропущенных сэмплов тишиной : Да
Удаление блоков с тишиной в начале и конце : Нет
При вычислениях CRC использовались нулевые сэмплы : Да
Интерфейс : Встроенный Win32-интерфейс для Win NT/2000
Выходной формат : Внутренние WAV-операции
Формат сэмплов : 44.100 Гц; 16 бит; стерео
TOC извлечённого CD
Трек | Старт | Длительность | Начальный сектор | Конечный сектор
---------------------------------------------------------------------
1 | 0:00.00 | 0:31.30 | 0 | 2354
2 | 0:31.30 | 4:06.40 | 2355 | 20844
3 | 4:37.70 | 4:49.12 | 20845 | 42531
4 | 9:27.07 | 3:45.45 | 42532 | 59451
5 | 13:12.52 | 4:18.45 | 59452 | 78846
6 | 17:31.22 | 4:05.25 | 78847 | 97246
7 | 21:36.47 | 3:25.73 | 97247 | 112694
8 | 25:02.45 | 4:16.20 | 112695 | 131914
9 | 29:18.65 | 4:54.35 | 131915 | 153999
10 | 34:13.25 | 0:37.10 | 154000 | 156784
11 | 34:50.35 | 4:49.32 | 156785 | 178491
12 | 39:39.67 | 4:40.35 | 178492 | 199526
13 | 44:20.27 | 6:00.00 | 199527 | 226526
Характеристики диапазона извлечения и сообщения об ошибках
Выбранный диапазон
Имя файла F:\Torrent\VA - Soulive-Turn It Out Remixed\v a - Soulive - Turn It Out Remixed.wav
Пиковый уровень 100.0 %
Качество диапазона 100.0 %
CRC копии DEF38BAF
Копирование... OK
Ошибок не произошло
AccurateRip: сводка
Трек 1 нет в базе данных
Трек 2 нет в базе данных
Трек 3 нет в базе данных
Трек 4 нет в базе данных
Трек 5 нет в базе данных
Трек 6 нет в базе данных
Трек 7 нет в базе данных
Трек 8 нет в базе данных
Трек 9 нет в базе данных
Трек 10 нет в базе данных
Трек 11 нет в базе данных
Трек 12 нет в базе данных
Трек 13 нет в базе данных
Ни одного трека нет в базе AccurateRip
Конец отчёта
 
Soulive - Next (2002)
Источник рипа: нарезка с фирмы
Продолжительность: 74:59
Трэклист:
01. Tuesday Night's Squad
02. Flurries
03. Liquid
04. Joyful Girl - (Vocals - Dave Matthews)
05. Kalen
06. Clap! - (Featuring - Black Thought of THE ROOTS)
07. Interlude
08. Ne-Ne
09. I Don't Know - (Vocals - Amel Larrieux)
10. Whatever It Is
11. Alkime
12. E.D. Hambone
13. Bridge To 'Bama (Hi Tek Remix) - (Featuring - Talib Kweli)
 
Отчёт EAC
Exact Audio Copy V0.99 prebeta 4 from 23. January 2008
Отчёт EAC об извлечении, выполненном 24. апреля 2009, 12:46
Soulive / Next
Дисковод: TEAC DV-W516GA Adapter: 0 ID: 0
Режим чтения : Достоверность
Использование точного потока : Да
Отключение кэша аудио : Да
Использование указателей C2 : Нет
Коррекция смещения при чтении : 12
Способность читать области Lead-in и Lead-out : Нет
Заполнение пропущенных сэмплов тишиной : Да
Удаление блоков с тишиной в начале и конце : Нет
При вычислениях CRC использовались нулевые сэмплы : Да
Интерфейс : Встроенный Win32-интерфейс для Win NT/2000
Выходной формат : Внутренние WAV-операции
Формат сэмплов : 44.100 Гц; 16 бит; стерео
TOC извлечённого CD
Трек | Старт | Длительность | Начальный сектор | Конечный сектор
---------------------------------------------------------------------
1 | 0:00.00 | 7:22.71 | 0 | 33220
2 | 7:22.71 | 5:55.48 | 33221 | 59893
3 | 13:18.44 | 6:39.30 | 59894 | 89848
4 | 19:57.74 | 6:16.41 | 89849 | 118089
5 | 26:14.40 | 7:39.68 | 118090 | 152582
6 | 33:54.33 | 5:21.49 | 152583 | 176706
7 | 39:16.07 | 1:11.51 | 176707 | 182082
8 | 40:27.58 | 8:06.29 | 182083 | 218561
9 | 48:34.12 | 5:09.15 | 218562 | 241751
10 | 53:43.27 | 4:30.71 | 241752 | 262072
11 | 58:14.23 | 7:01.64 | 262073 | 293711
12 | 65:16.12 | 5:06.12 | 293712 | 316673
13 | 70:22.24 | 4:37.03 | 316674 | 337451
Характеристики диапазона извлечения и сообщения об ошибках
Выбранный диапазон
Имя файла E:\раздача\Soulive-Next\Soulive - Next.wav
Пиковый уровень 98.8 %
Качество диапазона 100.0 %
CRC копии FE21EF7B
Копирование... OK
Ошибок не произошло
AccurateRip: сводка
Трек 1 точность не определена (достоверность 1) [146729E9], AccurateRip вернул [FE228BFD]
Трек 2 точность не определена (достоверность 1) [1095F21B], AccurateRip вернул [2784A727]
Трек 3 точность не определена (достоверность 1) [DFE0DEE2], AccurateRip вернул [20361A3C]
Трек 4 точность не определена (достоверность 1) [6EBECDA1], AccurateRip вернул [BAE3E22A]
Трек 5 точность не определена (достоверность 1) [6487AA2A], AccurateRip вернул [A61AE42D]
Трек 6 точность не определена (достоверность 1) [99B56B0D], AccurateRip вернул [E1DB864E]
Трек 7 точность не определена (достоверность 1) [284A3ED7], AccurateRip вернул [456802E6]
Трек 8 точность не определена (достоверность 1) [EEE37F16], AccurateRip вернул [EDFFBB8A]
Трек 9 точность не определена (достоверность 1) [7DE57433], AccurateRip вернул [FD5A7AB5]
Трек 10 точность не определена (достоверность 1) [97595693], AccurateRip вернул [AC5CBC8B]
Трек 11 точность не определена (достоверность 1) [EACE201D], AccurateRip вернул [AEE83457]
Трек 12 точность не определена (достоверность 1) [9A7A615E], AccurateRip вернул [C241B4AA]
Трек 13 точность не определена (достоверность 1) [5437C3A9], AccurateRip вернул [1DCD9927]
Ни один трек не прошёл проверки на точность
В вашей базе может быть иной вариант штамповки диска
Конец отчёта
 
Back
 
Front
Приватный:
Нет (DHT включён)
Размер:
1.31 Гб (1,405,586,827 байт) » файлов: 22
Участники:
0 раздают, 0 качают (0 участников всего)
Внешние участники:
--- [ Обновить ]
Никого нет на раздаче - пишите личное сообщение M0p94ok
No seeders - write personal message to M0p94ok
02:06
16
Нет комментариев. Ваш будет первым!