Поиск

(Jazz, Smooth Jazz) VA – Maestro: Blue Note Trip Vol. 2 - 2003, FLAC (image + .cue), lossless

Треклист:
VA – Maestro: Blue Note Trip Vol. 2
Страна: Голландия
Жанр: Jazz, Smooth Jazz
Год выпуска: 2003
Формат: FLAC (image + .cue)
Битрейт аудио: lossless
Продолжительность: 01:15:20 + 01:15:26
Трэклист CD1 (Sunset):
01. Bobby Hutcherson - Montara (The Roots Remix) (4:37)
02. Grant Green - Down Here On The Ground (Remix by The Ummah) (4:37)
03. Ronnie Foster - On The Avenue (3:14)
04. Lonnie Smith - Dancin' In An Easy Groove (5:52)
05. Joe Torres - Get Out Of My Way (2:51)
06. Quarteto Em Cy - Tudo Que Você Podia Ser (2:36)
07. Donald Byrd - You And The Music (5:03)
08. Bob Belden - Kiss (DJ Smash Remix) (5:02)
09. Ronnie Foster - Mystic Bounce (Madlib Remix) (3:23)
10. Buscemi - Viaje Feliz (5:30)
11. Hank Mobley - Recado Bossa Nova (8:08)
12. Eumir Deodato - Bebê (2:24)
13. Elza Soares - Mas Que Nada (2:11)
14. Os Três Moraes - Freio Aerodinamico (2:36)
15. Di Melo - A Vida Em Seus Métodos Diz Calma (3:28)
16. Eliane Elias - A Felicidade (3:56)
17. Soulive - Doin' Something (6:42)
18. Candido - I'm On My Way (3:09)
Трэклист CD2 (Sunrise):
01. Patti Drew - Beggar For The Blues (5:24)
02. Clare Fischer - Morning (4:02)
03. Chico Hamilton - The Morning Side Of Love (6:11)
04. Booster - Manzana (3:00)
05. Charlie Hunter - Day Is Done (4:24)
06. Marlena Shaw - Feel Like Makin' Love (4:48)
07. Nancy Wilson - Sunshine (6:23)
08. EDC - Samba In Solitude (3:56)
09. Horace Silver - Que Pasa (5:20)
10. Joe Henderson - Blue Bossa (4:31)
11. Coralie Clément - L'Ombre Et La Lumière (4:01)
12. Molly Johnson - Melody (3:25)
13. Soulive - Romantic (5:18)
14. Ronny Jordan - A Brighter Day (5:37)
15. Cassandra Wilson - Show Me Love (3:34)
16. Blue Mitchell - Good Humour Man (5:30)
 
Лог EAC CD1
Exact Audio Copy V0.99 prebeta 3 from 28. July 2007
Отчёт EAC об извлечении, выполненном 22. февраля 2008, 23:20
Various / VA - Maestro: Blue Note Trip Vol. 2 (Disc 1 - Sunset)
Дисковод: PIONEER DVD-RW DVR-K06RS Adapter: 1 ID: 0
Режим чтения : Достоверность
Использование точного потока : Да
Отключение кэша аудио : Да
Использование указателей C2 : Нет
Коррекция смещения при чтении : 48
Способность читать области Lead-in и Lead-out : Нет
Заполнение пропущенных сэмплов тишиной : Да
Удаление блоков с тишиной в начале и конце : Нет
При вычислениях CRC использовались нулевые сэмплы : Да
Интерфейс : Встроенный Win32-интерфейс для Win NT/2000
Выходной формат : Пользовательский кодировщик
Выбранный битрейт : 128 kBit/s
Качество : Высокий
Добавление ID3-тэга : Нет
Утилита сжатия : C:\Program Files\FLAC\flac.exe
Дополнительные параметры : -T "artist=%a" -T "title=%t" -T "album=%g" -T "date=%y" -T "tracknumber=%n" -T "genre=%m" -5 %s
TOC извлечённого CD
Трек | Старт | Длительность | Начальный сектор | Конечный сектор
---------------------------------------------------------------------
1 | 0:00.00 | 4:37.25 | 0 | 20799
2 | 4:37.25 | 4:37.06 | 20800 | 41580
3 | 9:14.31 | 3:14.23 | 41581 | 56153
4 | 12:28.54 | 5:52.37 | 56154 | 82590
5 | 18:21.16 | 2:50.69 | 82591 | 95409
6 | 21:12.10 | 2:35.67 | 95410 | 107101
7 | 23:48.02 | 5:03.29 | 107102 | 129855
8 | 28:51.31 | 5:01.40 | 129856 | 152470
9 | 33:52.71 | 3:22.54 | 152471 | 167674
10 | 37:15.50 | 5:29.49 | 167675 | 192398
11 | 42:45.24 | 8:08.23 | 192399 | 229021
12 | 50:53.47 | 2:24.30 | 229022 | 239851
13 | 53:18.02 | 2:10.41 | 239852 | 249642
14 | 55:28.43 | 2:36.36 | 249643 | 261378
15 | 58:05.04 | 3:28.12 | 261379 | 276990
16 | 61:33.16 | 3:56.18 | 276991 | 294708
17 | 65:29.34 | 6:42.08 | 294709 | 324866
18 | 72:11.42 | 3:08.41 | 324867 | 339007
Характеристики диапазона извлечения и сообщения об ошибках
Выбранный диапазон
Имя файла D:\torrents\releasing\VA - Maestro Blue Note Trip Vol. 2 (Disc 1 - Sunset).wav
Пиковый уровень 96.2 %
Качество диапазона 100.0 %
CRC копии 4592408C
Копирование... OK
Ошибок не произошло
Конец отчёта
 
Лог EAC CD2
Exact Audio Copy V0.99 prebeta 3 from 28. July 2007
Отчёт EAC об извлечении, выполненном 23. февраля 2008, 1:48
Various / VA - Maestro Blue Note Trip Vol. 2 (Disc 2 - Sunrise)
Дисковод: PIONEER DVD-RW DVR-K06RS Adapter: 1 ID: 0
Режим чтения : Достоверность
Использование точного потока : Да
Отключение кэша аудио : Да
Использование указателей C2 : Нет
Коррекция смещения при чтении : 48
Способность читать области Lead-in и Lead-out : Нет
Заполнение пропущенных сэмплов тишиной : Да
Удаление блоков с тишиной в начале и конце : Нет
При вычислениях CRC использовались нулевые сэмплы : Да
Интерфейс : Встроенный Win32-интерфейс для Win NT/2000
Выходной формат : Пользовательский кодировщик
Выбранный битрейт : 128 kBit/s
Качество : Высокий
Добавление ID3-тэга : Нет
Утилита сжатия : C:\Program Files\FLAC\flac.exe
Дополнительные параметры : -T "artist=%a" -T "title=%t" -T "album=%g" -T "date=%y" -T "tracknumber=%n" -T "genre=%m" -5 %s
TOC извлечённого CD
Трек | Старт | Длительность | Начальный сектор | Конечный сектор
---------------------------------------------------------------------
1 | 0:00.00 | 5:24.09 | 0 | 24308
2 | 5:24.09 | 4:01.59 | 24309 | 42442
3 | 9:25.68 | 6:10.49 | 42443 | 70241
4 | 15:36.42 | 2:59.68 | 70242 | 83734
5 | 18:36.35 | 4:24.37 | 83735 | 103571
6 | 23:00.72 | 4:48.34 | 103572 | 125205
7 | 27:49.31 | 6:23.07 | 125206 | 153937
8 | 34:12.38 | 3:56.22 | 153938 | 171659
9 | 38:08.60 | 5:20.28 | 171660 | 195687
10 | 43:29.13 | 4:31.11 | 195688 | 216023
11 | 48:00.24 | 4:01.08 | 216024 | 234106
12 | 52:01.32 | 3:24.72 | 234107 | 249478
13 | 55:26.29 | 5:17.73 | 249479 | 273326
14 | 60:44.27 | 5:37.21 | 273327 | 298622
15 | 66:21.48 | 3:33.58 | 298623 | 314655
16 | 69:55.31 | 5:30.25 | 314656 | 339430
Характеристики диапазона извлечения и сообщения об ошибках
Выбранный диапазон
Имя файла D:\torrents\releasing\VA - Maestro Blue Note Trip Vol. 2 (Disc 2 - Sunrise).wav
Пиковый уровень 96.6 %
Качество диапазона 100.0 %
CRC копии 1F5AC3AD
Копирование... OK
Ошибок не произошло
Конец отчёта
Доп. информация: Второй диск из серии Blue Note Trip представляет собой очередную компиляцию из треков каталога Blue Note от голландского ди-джея со скромным именем Maestro. Характерной чертой данной серии является очень бережное отношение к исходному материалу, то есть вмешательство составителя компиляции минимально.
Приватный:
Нет (DHT включён)
Размер:
977.41 Мб (1,024,888,050 байт) » файлов: 7
Участники:
0 раздают, 0 качают (0 участников всего)
Внешние участники:
5 раздают, 2 качают (7 участников всего) [ Обновить ]
12:13
6
Нет комментариев. Ваш будет первым!