Поиск

(jazz, smooth jazz, funk) Bob Baldwin - NEWURBANJAZZ.COM - 2008, APE (image + .cue), lossless

(jazz, smooth jazz, funk) Bob Baldwin - NEWURBANJAZZ.COM - 2008, APE (image + .cue), lossless
Треклист:
Bob Baldwin - NEWURBANJAZZ.COM
Страна: США
Жанр: jazz, smooth jazz, funk
Год выпуска: 2008
Формат: APE (image + .cue)
Битрейт аудио: lossless
Трэклист:
1 Jeep Jazz (Baldwin/Johnson/Zoi) 4:41
2 Third Wind (Baldwin) 5:14
3 My Cherie Amour (Wonder) 5:26
4 Somebody Else's Guy (Brown/Brown) 4:42
5 Take My Hand (Silva) 4:22
6 Seems Like One of Those Daze (Baldwin/Johnson/Iri) 4:09
7 She's All That! (Baldwin/Meadows) 5:07
8 Too Late [Remix] (Baldwin/Johnson/Ohi) 6:09
9 All Nite (Baldwin/Sommerville) 4:14
10 It Is What It Is (Baldwin/Sommerville) 5:07
11 Natural Thing (Baldwin/Johnson/Zoi) 3:49
12 Flying High (Baldwin/McComb) 5:36
13 Joe Zawinul (Baldwin/Stubblefiel) 4:14
14 Don't Keep Me Waiting (Baldwin/ASoulBorn) 5:12
15 New Urban Jazz (Johnson/Croche/Whit) 4:47
16 What Is New Urban Jazz? (Baldwin/Johnson) 0:45
 
ЛОГ:
Exact Audio Copy V0.99 prebeta 1 from 25. May 2007
EAC extraction logfile from 25. April 2008, 22:13
Bob Baldwin / newurbanjazz.com
Used drive : Optiarc DVD RW AD-7170A Adapter: 1 ID: 1
Read mode : Secure
Utilize accurate stream : Yes
Defeat audio cache : Yes
Make use of C2 pointers : No
Combined read/write offset correction : 48
Overread into Lead-In and Lead-Out : No
Fill up missing offset samples with silence : Yes
Delete leading and trailing silent blocks : No
Used interface : Installed external ASPI interface
Used output format : Internal WAV Routines
Sample format : 44.100 Hz; 16 Bit; Stereo
TOC of the extracted CD
Track | Start | Length | Start sector | End sector
---------------------------------------------------------
1 | 0:00.00 | 4:41.13 | 0 | 21087
2 | 4:41.13 | 5:14.64 | 21088 | 44701
3 | 9:56.02 | 5:26.44 | 44702 | 69195
4 | 15:22.46 | 4:42.32 | 69196 | 90377
5 | 20:05.03 | 4:22.42 | 90378 | 110069
6 | 24:27.45 | 4:09.73 | 110070 | 128817
7 | 28:37.43 | 5:07.46 | 128818 | 151888
8 | 33:45.14 | 6:09.42 | 151889 | 179605
9 | 39:54.56 | 4:14.43 | 179606 | 198698
10 | 44:09.24 | 5:07.40 | 198699 | 221763
11 | 49:16.64 | 3:49.67 | 221764 | 239005
12 | 53:06.56 | 5:36.08 | 239006 | 264213
13 | 58:42.64 | 4:14.25 | 264214 | 283288
14 | 62:57.14 | 5:12.09 | 283289 | 306697
15 | 68:09.23 | 4:47.35 | 306698 | 328257
16 | 72:56.58 | 0:45.02 | 328258 | 331634
Range status and errors
Selected range
Filename D:\Images\Torrent\Bob Baldwin\Bob Baldwin - newurbanjazz.wav
Peak level 100.0 %
Range quality 100.0 %
Copy CRC 6DA7EBE4
Copy OK
No errors occurred
End of status report
Приватный:
Нет (DHT включён)
Размер:
511.90 Мб (536,766,406 байт) » файлов: 10
Участники:
0 раздают, 0 качают (0 участников всего)
Внешние участники:
--- [ Обновить ]
12:44
5
Нет комментариев. Ваш будет первым!