Поиск

(Jazz Rock) Lee Ritenour - This Is Love - 1998, (APE, Image + cue) - 1998, APE (image + .cue), lossless

Треклист:
LEE RITENOUR - This Is Love - 1998, (APE, Image + cue)
Жанр: Jazz Rock
Год выпуска: 1998
Формат: APE (image + .cue)
Битрейт аудио: lossless
Продолжительность: 59:09
Трэклист:
LEE RITENOUR - This Is Love
01. This Is Love - 4:48
02. Mr. Papa - 4:41
03. Can You Feel It? - 5:21
04. Dream Away - 4:29
05. Alfie's Theme - 6:01
06. And You Know What... I Love You - 5:18
07. Baltimore - 4:53
08. Jjh-Yeah - 3:50
09. Street Runner - 7:36
10. Dreamwalk - 5:25
11. Pavane - 6:45
Доп. информация:
 
СD
 
Отчёт EAC
Exact Audio Copy V0.99 prebeta 4 from 23. January 2008
Отчёт EAC об извлечении, выполненном 2. марта 2008, 23:02
Lee Ritenour / This is Love
Дисковод: TSSTcorpCD/DVDW SH-S182D Adapter: 5 ID: 0
Режим чтения : Достоверность
Использование точного потока : Да
Отключение кэша аудио : Да
Использование указателей C2 : Нет
Коррекция смещения при чтении : 6
Способность читать области Lead-in и Lead-out : Нет
Заполнение пропущенных сэмплов тишиной : Да
Удаление блоков с тишиной в начале и конце : Нет
При вычислениях CRC использовались нулевые сэмплы : Да
Интерфейс : Встроенный Win32-интерфейс для Win NT/2000
Выходной формат : Внутренние WAV-операции
Формат сэмплов : 44.100 Гц; 16 бит; стерео
TOC извлечённого CD
Трек | Старт | Длительность | Начальный сектор | Конечный сектор
---------------------------------------------------------------------
1 | 0:00.00 | 4:47.65 | 0 | 21589
2 | 4:47.65 | 4:41.12 | 21590 | 42676
3 | 9:29.02 | 5:20.73 | 42677 | 66749
4 | 14:50.00 | 4:28.40 | 66750 | 86889
5 | 19:18.40 | 6:01.17 | 86890 | 113981
6 | 25:19.57 | 5:18.25 | 113982 | 137856
7 | 30:38.07 | 4:53.33 | 137857 | 159864
8 | 35:31.40 | 3:50.07 | 159865 | 177121
9 | 39:21.47 | 7:36.45 | 177122 | 211366
10 | 46:58.17 | 5:25.70 | 211367 | 235811
11 | 52:24.12 | 6:45.08 | 235812 | 266194
Характеристики диапазона извлечения и сообщения об ошибках
Выбранный диапазон
Имя файла C:\My Downloads\Torrents\Lee Ritenour\LEE RITENOUR - This Is Love - 1998, (APE, Image + cue)\Lee Ritenour - This is Love.wav
Пиковый уровень 100.0 %
Качество диапазона 100.0 %
CRC копии A1996D4A
Копирование... OK
Ошибок не произошло
AccurateRip: сводка
Трек 1 точное извлечение (доверие 6) [F4C299D5]
Трек 2 точное извлечение (доверие 5) [5FF0A7A4]
Трек 3 точное извлечение (доверие 6) [0632857C]
Трек 4 точное извлечение (доверие 6) [92EB9DA0]
Трек 5 точное извлечение (доверие 6) [EC62E8EA]
Трек 6 точное извлечение (доверие 6) [2E7CD04B]
Трек 7 точное извлечение (доверие 6) [728D420F]
Трек 8 точное извлечение (доверие 6) [5DDB9D96]
Трек 9 точное извлечение (доверие 6) [4731BD81]
Трек 10 точное извлечение (доверие 6) [2673087F]
Трек 11 точное извлечение (доверие 6) [69E8A61D]
Все треки извлечены точно
Конец отчёта
Приватный:
Нет (DHT включён)
Размер:
346.28 Мб (363,101,459 байт) » файлов: 3
Участники:
0 раздают, 0 качают (0 участников всего)
Внешние участники:
--- [ Обновить ]
12:17
3
Нет комментариев. Ваш будет первым!