Вы используете незарегистрированную версию компонента "Вкладки"!

Поиск

(Jazz-Rock, Free Improvisation, Noise, Psychedelic) Fire! (Mats Gustafsson, Johan Berthling, Andreas Werliin) & Oren Ambarchi - In The Mouth - A Hand - 2012, FLAC (tracks+.cue), lossless

(Jazz-Rock, Free Improvisation, Noise, Psychedelic) Fire! (Mats Gustafsson, Johan Berthling, Andreas Werliin) & Oren Ambarchi - In The Mouth - A Hand - 2012, FLAC (tracks+.cue), lossless
Треклист:
fire! with oren ambarchi / in the mouth - a hand
Жанр: Jazz-Rock, Free Improvisation, Noise, Psychedelic
Страна-производитель диска: Швеция
Год издания: 2012
Издатель (лейбл): Rune Grammofon
Номер по каталогу: RCD 2130
Страна: Швеция, Австралия
Аудиокодек: FLAC (*.flac)
Тип рипа: tracks+.cue
Битрейт аудио: lossless
Продолжительность: 1:08:39
Источник (релизер): вот.сиди (hcl12m)
Наличие сканов в содержимом раздачи: нет
Треклист:
1. A Man Who Might Have Been Screaming 18:10
2. And The Stories Will Flood Your Satisfaction (With Terror) 23:24
3. He Wants To Sleep In A Dream (He Keeps In His Head) 19:11
4. I Am Sucking For A Bruise 7:54
Fire! & Oren Ambarchi live @ Supersonic Fest
 
Лог создания рипа
Exact Audio Copy V1.0 beta 3 from 29. August 2011
EAC extraction logfile from 10. May 2012, 20:11
Fire! with Oren Ambarchi / In The Mouth A Hand
Used drive : Optiarc DVD RW AD-7700H Adapter: 0 ID: 1
Read mode : Secure
Utilize accurate stream : Yes
Defeat audio cache : Yes
Make use of C2 pointers : No
Read offset correction : 48
Overread into Lead-In and Lead-Out : No
Fill up missing offset samples with silence : Yes
Delete leading and trailing silent blocks : No
Null samples used in CRC calculations : Yes
Used interface : Native Win32 interface for Win NT & 2000
Gap handling : Appended to previous track
Used output format : User Defined Encoder
Selected bitrate : 128 kBit/s
Quality : High
Add ID3 tag : No
Command line compressor : C:\Program Files (x86)\Exact Audio Copy\Flac\flac.exe
Additional command line options : -8 -V -T "ARTIST=%artist%" -T "TITLE=%title%" -T "ALBUM=%albumtitle%" -T "DATE=%year%" -T "TRACKNUMBER=%tracknr%" -T "GENRE=%genre%" -T "PERFORMER=%albuminterpret%" -T "COMPOSER=%composer%" %haslyrics%--tag-from-file=LYRICS="%lyricsfile%"%haslyrics% -T "ALBUMARTIST=%albumartist%" -T "DISCNUMBER=%cdnumber%" -T "TOTALDISCS=%totalcds%" -T "TOTALTRACKS=%numtracks%" -T "COMMENT=%comment%" %source% -o %dest%
TOC of the extracted CD
Track | Start | Length | Start sector | End sector
---------------------------------------------------------
1 | 0:00.00 | 18:09.66 | 0 | 81740
2 | 18:09.66 | 23:23.50 | 81741 | 187015
3 | 41:33.41 | 19:11.36 | 187016 | 273376
4 | 60:45.02 | 7:54.10 | 273377 | 308936
Track 1
Filename C:\Fire! With Oren Ambarchi\Fire! With Oren Ambarchi - In The Mouth A Hand\01 A Man Who Might Have Been Screaming.wav
Pre-gap length 0:00:02.00
Peak level 100.0 %
Extraction speed 3.7 X
Track quality 100.0 %
Test CRC F2DCFE0B
Copy CRC F2DCFE0B
Track not present in AccurateRip database
Copy OK
Track 2
Filename C:\Fire! With Oren Ambarchi\Fire! With Oren Ambarchi - In The Mouth A Hand\02 And The Stories Will Flood Your Satisfaction (With Terror).wav
Pre-gap length 0:00:04.01
Peak level 100.0 %
Extraction speed 4.9 X
Track quality 99.9 %
Test CRC 0B6D714D
Copy CRC 0B6D714D
Track not present in AccurateRip database
Copy OK
Track 3
Filename C:\Fire! With Oren Ambarchi\Fire! With Oren Ambarchi - In The Mouth A Hand\03 He Wants To Sleep In A Dream (He Keeps In His Head).wav
Pre-gap length 0:00:03.86
Peak level 100.0 %
Extraction speed 6.1 X
Track quality 100.0 %
Test CRC FB3DB5A5
Copy CRC FB3DB5A5
Track not present in AccurateRip database
Copy OK
Track 4
Filename C:\Fire! With Oren Ambarchi\Fire! With Oren Ambarchi - In The Mouth A Hand\04 I Am Sucking For A Bruise.wav
Pre-gap length 0:00:04.21
Peak level 90.3 %
Extraction speed 6.2 X
Track quality 100.0 %
Test CRC A4545FAA
Copy CRC A4545FAA
Track not present in AccurateRip database
Copy OK
None of the tracks are present in the AccurateRip database
No errors occurred
End of status report
---- CUETools DB Plugin V2.1.3
[CTDB TOCID: Aa8XSu1trl8eSnLmDvpAMAemC1M-] disk not present in database, Submit result: Aa8XSu1trl8eSnLmDvpAMAemC1M- has been uploaded
==== Log checksum D4F63462CB4A14B0F01771A9C2D2BBFCA17D39A2FF673D701833D68EFF369EBE ====
 
Содержание индексной карты (.CUE)
REM GENRE "Free Jazz"
REM DATE 2012
REM DISCID 35101704
REM COMMENT "ExactAudioCopy v1.0b3"
PERFORMER "Fire! with Oren Ambarchi"
TITLE "In The Mouth A Hand"
FILE "01 A Man Who Might Have Been Screaming.wav" WAVE
TRACK 01 AUDIO
TITLE "A Man Who Might Have Been Screaming"
PERFORMER "Fire! with Oren Ambarchi"
ISRC NOFGR1230010
INDEX 01 00:00:00
TRACK 02 AUDIO
TITLE "And The Stories Will Flood Your Satisfaction (With Terror)"
PERFORMER "Fire! with Oren Ambarchi"
ISRC NOFGR1230020
INDEX 00 18:05:65
FILE "02 And The Stories Will Flood Your Satisfaction (With Terror).wav" WAVE
INDEX 01 00:00:00
TRACK 03 AUDIO
TITLE "He Wants To Sleep In A Dream (He Keeps In His Head)"
PERFORMER "Fire! with Oren Ambarchi"
ISRC NOFGR1230030
INDEX 00 23:19:60
FILE "03 He Wants To Sleep In A Dream (He Keeps In His Head).wav" WAVE
INDEX 01 00:00:00
TRACK 04 AUDIO
TITLE "I Am Sucking For A Bruise"
PERFORMER "Fire! with Oren Ambarchi"
ISRC NOFGR1230040
INDEX 00 19:07:20
FILE "04 I Am Sucking For A Bruise.wav" WAVE
INDEX 01 00:00:00
 
Лог проверки качества
AUDIOCHECKER v2.0 beta (build 457) - by Dester - opdester@freemail.hu
~~~~~~~~~~~~~~~~~~~~~~~~~~~~~~~~~~
-=== DO NOT EDIT THIS FILE! ===-
Path: ...\Fire! With Oren Ambarchi - In The Mouth A Hand
1 -=- 01 A Man Who Might Have Been Screaming.flac -=- CDDA (100%)
2 -=- 02 And The Stories Will Flood Your Satisfaction (With Terror).flac -=- CDDA (99%)
3 -=- 03 He Wants To Sleep In A Dream (He Keeps In His Head).flac -=- CDDA (100%)
4 -=- 04 I Am Sucking For A Bruise.flac -=- CDDA (100%)
Summary 99,75% CDDA
122757588
 
Состав
Mats Gustafsson – saxophone, Fender Rhodes, electronics
Johan Berthling – electric bass
Andreas Werliin – drums
Oren Ambarchi – guitar
Any questions -> support@pro-jazz.com. По всем вопросам пишите -> support@pro-jazz.com
Нет комментариев. Ваш будет первым!