Поиск

(jazz) John Zorn - Emergency - 1999, FLAC (image + .cue)

(jazz) John Zorn - Emergency - 1999, FLAC (image + .cue)
Треклист:
John Zorn - Emergency

Жанр: jazz
Год выпуска: 1999
Формат: FLAC (image + .cue)
Продолжительность: 1:05:55
Трэклист:
#1
#2
#3
Доп. информация: EMERGENCY live CD:
August 29, 1999 Willisau Jazz Festival.
- 3 tracks -
66 mins, 00 secs approx
Уж насколько я "заумь" Зорновскую не переношу, а сей концерт и мне вкатил, особо трек с оригинальным названием #1...
А может я просто "вырос"?!
 
Отчет ЕАС
Exact Audio Copy V0.99 prebeta 1 from 25. May 2007
EAC extraction logfile from 3. September 2007, 14:01
John Zorn / Emergency
Used drive : Optiarc DVD RW AD-7173A Adapter: 0 ID: 0
Read mode : Secure
Utilize accurate stream : Yes
Defeat audio cache : Yes
Make use of C2 pointers : No
Read offset correction : 48
Overread into Lead-In and Lead-Out : No
Fill up missing offset samples with silence : Yes
Delete leading and trailing silent blocks : No
Used interface : Installed external ASPI interface
Used output format : User Defined Encoder
Selected bitrate : 896 kBit/s
Quality : High
Add ID3 tag : Yes
Command line compressor : D:\Program Files\Exact Audio Copy\FLAC\FLAC.EXE
TOC of the extracted CD
Track | Start | Length | Start sector | End sector
---------------------------------------------------------
1 | 0:00.00 | 28:11.15 | 0 | 126839
2 | 28:11.15 | 26:55.64 | 126840 | 248028
3 | 55:07.04 | 10:48.26 | 248029 | 296654
Range status and errors
Selected range
Filename F:\music\Audio HQ\John Zorn\John Zorn - 1999 - Emergency\John Zorn - 1999 - Emergency.wav
Peak level 81.4 %
Range quality 99.9 %
Copy CRC 119E6C81
Copy OK
AccurateRip summary
Track 1 not present in database
Track 2 not present in database
Track 3 not present in database
No errors occurred
End of status report
Приватный:
Нет (DHT включён)
Размер:
377.10 Мб (395,417,920 байт) » файлов: 8
Участники:
0 раздают, 0 качают (0 участников всего)
Внешние участники:
2 раздают, 1 качают (3 участников всего) [ Обновить ]
Есть вопросы - пишите личное сообщение пользователю M0p94ok.
22:29
66
Нет комментариев. Ваш будет первым!