Поиск

(Jazz, Funk, Soul) [CD] Calibro 35 - Decade - 2018, FLAC (image+.cue), lossless

(Jazz, Funk, Soul) [CD] Calibro 35 - Decade - 2018, FLAC (image+.cue), lossless
Треклист:
Calibro 35 - Decade
Жанр: Jazz, Funk, Soul
Носитель: CD
Страна-производитель диска (релиза): Italy
Год издания: 2018
Издатель (лейбл): Record Kicks
Номер по каталогу: RKX 068
Страна исполнителя (группы): Milan, Italy
Аудиокодек: FLAC (*.flac)
Тип рипа: image+.cue
Битрейт аудио: lossless
Продолжительность: 0:48:03
Источник (релизер): собственный рип
Наличие сканов в содержимом раздачи: да
Треклист:
01. Psycheground 3:06
02. Superstudio 4:49
03. Faster Faster! 3:56
04. Pragma 5:57
05. Modulor 3:28
06. ArchiZoom 3:15
07. Ambienti 3:06
08. Agogica 5:19
09. Polymeri 2:11
10. Mood 7:09
11. Travelers 5:46
 
Лог создания рипа
Exact Audio Copy V1.3 from 2. September 2016
Отчёт EAC об извлечении, выполненном 7. февраля 2018, 14:32
Calibro 35 / Decade
Дисковод: ASUS DRW-24B3ST Adapter: 1 ID: 0
Режим чтения : Достоверность
Использование точного потока : Да
Отключение кэша аудио : Да
Использование указателей C2 : Нет
Коррекция смещения при чтении : 6
Способность читать области Lead-in и Lead-out : Нет
Заполнение пропущенных сэмплов тишиной : Да
Удаление блоков с тишиной в начале и конце : Нет
При вычислениях CRC использовались нулевые сэмплы : Да
Интерфейс : Встроенный Win32-интерфейс для Win NT/2000
Выходной формат : Пользовательский кодировщик
Выбранный битрейт : 1024 kBit/s
Качество : Высокий
Добавление ID3-тега : Нет
Утилита сжатия : C:\Program Files (x86)\Exact Audio Copy\Flac\flac-1.3.2-win\win64\flac.exe
Дополнительные параметры : -V -8 -T "Date=%year%" -T "Genre=%genre%" %source%
TOC извлечённого CD
Трек | Старт | Длительность | Начальный сектор | Конечный сектор
---------------------------------------------------------------------
1 | 0:00.00 | 3:05.60 | 0 | 13934
2 | 3:05.60 | 4:49.02 | 13935 | 35611
3 | 7:54.62 | 3:56.06 | 35612 | 53317
4 | 11:50.68 | 5:56.72 | 53318 | 80089
5 | 17:47.65 | 3:28.37 | 80090 | 95726
6 | 21:16.27 | 3:15.25 | 95727 | 110376
7 | 24:31.52 | 3:06.33 | 110377 | 124359
8 | 27:38.10 | 5:18.41 | 124360 | 148250
9 | 32:56.51 | 2:11.29 | 148251 | 158104
10 | 35:08.05 | 7:08.55 | 158105 | 190259
11 | 42:16.60 | 5:46.13 | 190260 | 216222
Характеристики диапазона извлечения и сообщения об ошибках
Выбранный диапазон
Имя файла E:\Torrents\Calibro 35 - 2018 - Decade\Calibro 35 - Decade.wav
Пиковый уровень 99.9 %
Скорость извлечения 8.2 X
Качество диапазона 100.0 %
CRC теста CD90E140
CRC копии CD90E140
Копирование... OK
Ошибок не произошло
AccurateRip: сводка
Трек 1 отсутствует в базе данных
Трек 2 отсутствует в базе данных
Трек 3 отсутствует в базе данных
Трек 4 отсутствует в базе данных
Трек 5 отсутствует в базе данных
Трек 6 отсутствует в базе данных
Трек 7 отсутствует в базе данных
Трек 8 отсутствует в базе данных
Трек 9 отсутствует в базе данных
Трек 10 отсутствует в базе данных
Трек 11 отсутствует в базе данных
Ни одного трека нет в базе AccurateRip
Конец отчёта
==== Контрольная сумма отчёта D6A942D9998D7CA6BA822B20C9E223C7E289CA2B0B19ABE26B786CFC2F2612D7 ====
 
Замер динамического диапазона (DMR)
foobar2000 1.3.17 / Dynamic Range Meter 1.1.1
log date: 2018-02-07 14:49:47
--------------------------------------------------------------------------------
Analyzed: Calibro 35 / Decade
--------------------------------------------------------------------------------
DR Peak RMS Duration Track
--------------------------------------------------------------------------------
DR6 -0.01 dB -7.06 dB 3:06 01-Psycheground
DR5 -0.01 dB -6.75 dB 4:49 02-SuperStudio
DR6 -0.01 dB -7.68 dB 3:56 03-Faster Faster!
DR6 -0.01 dB -7.85 dB 5:57 04-Pragma
DR8 -0.01 dB -9.97 dB 3:28 05-Modulor
DR6 -0.01 dB -6.59 dB 3:15 06-ArchiZoom
DR6 -0.01 dB -8.03 dB 3:06 07-Ambienti
DR6 -0.01 dB -7.84 dB 5:19 08-Agogica
DR5 -0.01 dB -8.29 dB 2:11 09-Polymeri
DR6 -0.01 dB -7.38 dB 7:09 10-Modo
DR6 -0.01 dB -7.67 dB 5:46 11-Travelers
--------------------------------------------------------------------------------
Number of tracks: 11
Official DR value: DR6
Samplerate: 44100 Hz
Channels: 2
Bits per sample: 16
Bitrate: 945 kbps
Codec: FLAC
================================================================================
 
Об исполнителе (группе)
Приватный:
Нет (DHT включён)
Размер:
371.48 Мб (389,521,494 байт) » файлов: 11
Участники:
0 раздают, 0 качают (0 участников всего)
Внешние участники:
--- [ Обновить ]
Есть вопросы - пишите личное сообщение пользователю M0p94ok.
15:31
115
Нет комментариев. Ваш будет первым!