Вы используете незарегистрированную версию компонента "Вкладки"!

Поиск

(Jazz-Funk, Latin Jazz, Fusion) [LP] [24/96] Airto Moreira - Promises Of The Sun - 1976, FLAC (tracks+.cue)

(Jazz-Funk, Latin Jazz, Fusion) [LP] [24/96] Airto Moreira - Promises Of The Sun - 1976, FLAC (tracks+.cue)
Треклист:
Airto Moreira - Promises Of The Sun
Жанр: Jazz-Funk, Latin Jazz, Fusion
Носитель: LP
Год выпуска: 1976
Лейбл: Arista - AL-4116
Страна-производитель: USA
Аудио кодек: FLAC
Тип рипа: tracks+.cue
Формат записи: 32/96
Формат раздачи: 24/96
Продолжительность: 00:36:33
 
Треклист
Side 1
A1 - Batucada 4:42
Percussion, Vocals, Songwriter - Airto
A2 - Zuei 3:56
Bass - Novelli / Drums, Percussion, Lead Vocals, Songwriter - Airto
Electric Guitar - Toninho Horta / Keyboards - Hugo Fattoruso
A3 - Promises Of The Sun 5:27
Bass - Novelli / Electric Guitar - Toninho Horta
Flute, Drums, Percussion, Backing Vocals - Airto
Keyboards - Hugo Fattoruso / Trombone - Raul De Souza
Lead Vocals, Acoustic Guitar, Songwriter - Milton Nascimento
A4 - Candango 3:56
Bass - Novelli / Drums, Percussion, Lead Vocals, Songwriter - Airto
Electric Guitar - Toninho Horta / Keyboards - Hugo Fattoruso
Side 2
B1 - Circo Marimbondo 4:15
Acoustic Guitar, Songwriter - Milton Nascimento / Bass - Novelli
Electric Guitar - Toninho Horta / Lead Vocals, Percussion - Airto
Songwriter - Milton Nascimento, Ronaldo Bastos
B2 - La De Casa 4:04
Acoustic Guitar, Songwriter - Novelli / Keyboards - Hugo Fattoruso
Guitar [12 String], Electric Guitar - Toninho Horta / Percussion, Vocals - Airto
B3 - Ruas Do Recife 3:19
Guitar [12 String], Electric Guitar - Toninho Horta / Percussion - Airto
Lead Vocals, Songwriter - Novelli / Trombone - Raul De Souza
Songwriter - Marcos Valle, Novelli, Paulo S. Valle
B4 - Georgiana 6:46
Electric Guitar - Toninho Horta / Electric Piano - Novelli
Keyboards - Hugo Fattoruso / Trombone - Raul De Souza
Lead Vocals, Drums, Percussion, Songwriter - Airto / Vocals - Flora Purim
 
Credits & Notes
Companies, etc.
Mastered At - Kendun Recorders
Lacquer Cut At - Kendun Recorders
Recorded At - Paramount Recording Studios
Credits
Arranged By - Airto Moreira, Novelli
Backing Vocals - The Singing Snakes (tracks: B1, B3)
Co-producer - Dick Cutler
Engineer, Mixed By - Kerry McNabb
Management - Dennis Turner, Ken Fritz
Mastered By - John Golden
Mastered By [Vinyl Runout] - JG
Photography By - Joel Sussman, Stuart Cutler
Producer - Airto Moreira, Flora Purim
Notes
Including insert with credits
Recorded at Paramount Recording Studio, Los Angeles, 1976.
Mastered at Kendun Studios, Burbank, California.
Flora Purim appears courtesy of Warner Bros. Records,Inc.
Barcode and Other Identifiers
Matrix / Runout (Side 1): AL-4116-SA PP KENDUN-A
Matrix / Runout (Side 2): AL-4116-SB PP KENDUN-b JG
 
Техническая информация
Источник оцифровки: третьим лицом
Код класса состояния винила: VG+
Устройство воспроизведения: Technics SL 1210 MKII
Головка звукоснимателя: Denon DL304 M/C
Предварительный усилитель: Cambridge Audio AZUR640P M/C
АЦП: M-Audio Profire 610
Программа-оцифровщик: Adobe audition 3.0
Обработка: Manual declick
 
Спектр
 
АЧХ
 
Уровень записи
Доп. информация:
 
DR16
foobar2000 1.1.5 / Dynamic Range Meter 1.1.1
log date: 2012-05-30 03:17:21
--------------------------------------------------------------------------------
Analyzed: Airto / Promises Of The Sun
--------------------------------------------------------------------------------
DR Peak RMS Duration Track
--------------------------------------------------------------------------------
DR17 -1.83 dB -21.55 dB 4:41 01-Batucada
DR15 -0.74 dB -19.12 dB 3:55 02-Zuei
DR16 -0.09 dB -18.40 dB 5:28 03-Promises Of The Sun
DR15 -1.03 dB -19.23 dB 3:58 04-Candango
DR19 0.00 dB -20.93 dB 4:15 05-Circo Marimbondo
DR17 -0.42 dB -21.82 dB 4:06 06-La De Casa
DR14 -2.68 dB -20.77 dB 3:21 07-Ruas Do Recife
DR16 -0.88 dB -20.43 dB 6:50 08-Georgiana
--------------------------------------------------------------------------------
Number of tracks: 8
Official DR value: DR16
Samplerate: 96000 Hz
Channels: 2
Bits per sample: 24
Bitrate: 3062 kbps
Codec: FLAC
================================================================================
Any questions - support@pro-jazz.com.
Есть вопросы - support@pro-jazz.com
10:19
261
Нет комментариев. Ваш будет первым!