Поиск

(Jazz-Funk, Fusion, Contemporary Jazz) [CD] Kamasi Washington - The Proclamation - 2007, FLAC (tracks+.cue), lossless

(Jazz-Funk, Fusion, Contemporary Jazz) [CD] Kamasi Washington - The Proclamation - 2007, FLAC (tracks+.cue), lossless
Треклист:
Kamasi Washington - The Proclamation
Жанр: Jazz-Funk, Fusion, Contemporary Jazz
Носитель: CD
Страна-производитель диска (релиза): США
Год издания: 2007
Издатель (лейбл): Self-Released
Аудиокодек: FLAC (*.flac)
Тип рипа: tracks+.cue
Битрейт аудио: lossless
Продолжительность: 78:58
Источник (релизер): oregano32423 (what)
Наличие сканов в содержимом раздачи: нет
Треклист:
01. The Conception (Washington) - 15:35
02. The Bombshell's Waltz (Washington) - 12:01
03. Fair as Equal (Washington) - 8:32
04. Whacha Say (Washington) - 4:56
05. The Rhythm Changes (Washington) - 8:34
06. Lonely Woman (Coleman) - 11:19
07. Like Someone in Love (Burke-Van Heusen) - 7:06
08. Bobby Boom Bap (Washington) - 10:55
Состав:
Kamasi Washington - tenor saxophone
Ryan Porter - trombone (#1-6,8)
Cameron Graves - piano (#2-5,8)
Brandon Coleman - keyboards (#1-5,7-8)
Miles Mosley - acoustic bass (#2-8)
Stephen Bruner - electric bass (#1,3,5)
Tony Austin (#1-2,4,6-7), Ronald Bruner (#3,5), Robert Miller (#8) - drums
Patrice Quinn - vocals (#1,3)
 
Лог создания рипа
X Lossless Decoder version 20151214 (149.1)
XLD extraction logfile from 2016-10-03 23:03:13 -0400
Kamasi Washington / The Proclamation
Used drive : MATSHITA DVD-R UJ-8A8 (revision HB14)
Media type : Pressed CD
Ripper mode : XLD Secure Ripper
Disable audio cache : OK for the drive with a cache less than 1375KiB
Make use of C2 pointers : NO
Read offset correction : 102
Max retry count : 20
Gap status : Analyzed, Appended (except HTOA)
TOC of the extracted CD
Track | Start | Length | Start sector | End sector
---------------------------------------------------------
1 | 00:00:00 | 15:35:36 | 0 | 70160
2 | 15:35:36 | 12:01:14 | 70161 | 124249
3 | 27:36:50 | 08:31:72 | 124250 | 162646
4 | 36:08:47 | 04:56:31 | 162647 | 184877
5 | 41:05:03 | 08:33:43 | 184878 | 223395
6 | 49:38:46 | 11:18:43 | 223396 | 274288
7 | 60:57:14 | 07:05:74 | 274289 | 306237
8 | 68:03:13 | 10:55:10 | 306238 | 355372
AccurateRip Summary
Disc not found in AccurateRip DB.
All Tracks
Album gain : -6.94 dB
Peak : 0.831451
Statistics
Read error : 0
Jitter error (maybe fixed) : 0
Retry sector count : 0
Damaged sector count : 0
Track 01
Filename : /Users/aaronglasser/Downloads/thyme/FLAC/Kamasi Washington - The Proclamation (2007) [FLAC]/01 The Conception.flac
Pre-gap length : 00:02:00
Track gain : -6.95 dB
Peak : 0.821960
CRC32 hash (test run) : 91A10BD1
CRC32 hash : 91A10BD1
CRC32 hash (skip zero) : 3D27E2A2
AccurateRip v1 signature : D62BA17A
AccurateRip v2 signature : AD032593
->Track not present in AccurateRip database.
Statistics
Read error : 0
Jitter error (maybe fixed) : 0
Retry sector count : 0
Damaged sector count : 0
Track 02
Filename : /Users/aaronglasser/Downloads/thyme/FLAC/Kamasi Washington - The Proclamation (2007) [FLAC]/02 The Bombshell's Waltz.flac
Pre-gap length : 00:02:00
Track gain : -6.77 dB
Peak : 0.831390
CRC32 hash (test run) : C73628F6
CRC32 hash : C73628F6
CRC32 hash (skip zero) : ABED021D
AccurateRip v1 signature : 7C5B6F21
AccurateRip v2 signature : 97A157BE
->Track not present in AccurateRip database.
Statistics
Read error : 0
Jitter error (maybe fixed) : 0
Retry sector count : 0
Damaged sector count : 0
Track 03
Filename : /Users/aaronglasser/Downloads/thyme/FLAC/Kamasi Washington - The Proclamation (2007) [FLAC]/03 Fair as Equal.flac
Pre-gap length : 00:00:30
Track gain : -5.44 dB
Peak : 0.831451
CRC32 hash (test run) : B5686D36
CRC32 hash : B5686D36
CRC32 hash (skip zero) : 057114C1
AccurateRip v1 signature : 32CEB5AB
AccurateRip v2 signature : 870175FF
->Track not present in AccurateRip database.
Statistics
Read error : 0
Jitter error (maybe fixed) : 0
Retry sector count : 0
Damaged sector count : 0
Track 04
Filename : /Users/aaronglasser/Downloads/thyme/FLAC/Kamasi Washington - The Proclamation (2007) [FLAC]/04 Whacha Say.flac
Pre-gap length : 00:00:30
Track gain : -8.70 dB
Peak : 0.822052
CRC32 hash (test run) : C4379F95
CRC32 hash : C4379F95
CRC32 hash (skip zero) : 7DFC08D6
AccurateRip v1 signature : 1E4E1F1B
AccurateRip v2 signature : 981BA7B1
->Track not present in AccurateRip database.
Statistics
Read error : 0
Jitter error (maybe fixed) : 0
Retry sector count : 0
Damaged sector count : 0
Track 05
Filename : /Users/aaronglasser/Downloads/thyme/FLAC/Kamasi Washington - The Proclamation (2007) [FLAC]/05 The Rhythm Changes.flac
Track gain : -5.84 dB
Peak : 0.821899
CRC32 hash (test run) : A7EA05D2
CRC32 hash : A7EA05D2
CRC32 hash (skip zero) : C444188D
AccurateRip v1 signature : B2850886
AccurateRip v2 signature : 55EDDFA4
->Track not present in AccurateRip database.
Statistics
Read error : 0
Jitter error (maybe fixed) : 0
Retry sector count : 0
Damaged sector count : 0
Track 06
Filename : /Users/aaronglasser/Downloads/thyme/FLAC/Kamasi Washington - The Proclamation (2007) [FLAC]/06 Lonely Woman.flac
Track gain : -6.53 dB
Peak : 0.821991
CRC32 hash (test run) : BE1BBF04
CRC32 hash : 3E45D70C
->Rip may not be accurate.
CRC32 hash (skip zero) : F90183EF
AccurateRip v1 signature : 4D023152
AccurateRip v2 signature : 9EE8303A
->Track not present in AccurateRip database.
Statistics
Read error : 0
Jitter error (maybe fixed) : 0
Retry sector count : 0
Damaged sector count : 0
Track 07
Filename : /Users/aaronglasser/Downloads/thyme/FLAC/Kamasi Washington - The Proclamation (2007) [FLAC]/07 Like Someone in Love.flac
Track gain : -6.84 dB
Peak : 0.821930
CRC32 hash (test run) : C72AF12F
CRC32 hash : C72AF12F
CRC32 hash (skip zero) : 29736483
AccurateRip v1 signature : AA1D5BA2
AccurateRip v2 signature : 6B385293
->Track not present in AccurateRip database.
Statistics
Read error : 0
Jitter error (maybe fixed) : 0
Retry sector count : 0
Damaged sector count : 0
Track 08
Filename : /Users/aaronglasser/Downloads/thyme/FLAC/Kamasi Washington - The Proclamation (2007) [FLAC]/08 Bobby Boom Bap.flac
Pre-gap length : 00:02:00
Track gain : -7.61 dB
Peak : 0.821808
CRC32 hash (test run) : 47F792A8
CRC32 hash : 47F792A8
CRC32 hash (skip zero) : 26F6C1BB
AccurateRip v1 signature : 521F9FD8
AccurateRip v2 signature : 2CFA5D71
->Track not present in AccurateRip database.
Statistics
Read error : 0
Jitter error (maybe fixed) : 0
Retry sector count : 0
Damaged sector count : 0
Some inconsistencies found
End of status report
-----BEGIN XLD SIGNATURE-----
M17QfMeMnJS7GLflg9v.oz4rQPNCy_WUTyR_AlYpzeg2PHTfY2irYEkm_iNhd6_pVRjpBQz_XRX.3sOvO4Ws2bFZArVjbDOoG.xjW_G
-----END XLD SIGNATURE-----
 
Содержание индексной карты (.CUE)
TITLE "The Proclamation"
PERFORMER "Kamasi Washington"
REM GENRE "Jazz"
REM DATE "2007"
REM DISCID 81128208
REM REPLAYGAIN_ALBUM_GAIN -6.94 dB
REM REPLAYGAIN_ALBUM_PEAK 0.831451
FILE "01 - The Conception.flac" WAVE
TRACK 01 AUDIO
TITLE "The Conception"
REM REPLAYGAIN_TRACK_GAIN -6.95 dB
REM REPLAYGAIN_TRACK_PEAK 0.821960
INDEX 01 00:00:00
TRACK 02 AUDIO
TITLE "The Bombshell's Waltz"
REM REPLAYGAIN_TRACK_GAIN -6.77 dB
REM REPLAYGAIN_TRACK_PEAK 0.831390
INDEX 00 15:33:36
FILE "02 - The Bombshell's Waltz.flac" WAVE
INDEX 01 00:00:00
TRACK 03 AUDIO
TITLE "Fair as Equal"
REM REPLAYGAIN_TRACK_GAIN -5.44 dB
REM REPLAYGAIN_TRACK_PEAK 0.831451
INDEX 00 12:00:59
FILE "03 - Fair as Equal.flac" WAVE
INDEX 01 00:00:00
TRACK 04 AUDIO
TITLE "Whacha Say"
REM REPLAYGAIN_TRACK_GAIN -8.70 dB
REM REPLAYGAIN_TRACK_PEAK 0.822052
INDEX 00 08:31:42
FILE "04 - Whacha Say.flac" WAVE
INDEX 01 00:00:00
FILE "05 - The Rhythm Changes.flac" WAVE
TRACK 05 AUDIO
TITLE "The Rhythm Changes"
REM REPLAYGAIN_TRACK_GAIN -5.84 dB
REM REPLAYGAIN_TRACK_PEAK 0.821899
INDEX 01 00:00:00
FILE "06 - Lonely Woman.flac" WAVE
TRACK 06 AUDIO
TITLE "Lonely Woman"
REM REPLAYGAIN_TRACK_GAIN -6.53 dB
REM REPLAYGAIN_TRACK_PEAK 0.821991
INDEX 01 00:00:00
FILE "07 - Like Someone in Love.flac" WAVE
TRACK 07 AUDIO
TITLE "Like Someone in Love"
REM REPLAYGAIN_TRACK_GAIN -6.84 dB
REM REPLAYGAIN_TRACK_PEAK 0.821930
INDEX 01 00:00:00
TRACK 08 AUDIO
TITLE "Bobby Boom Bap"
REM REPLAYGAIN_TRACK_GAIN -7.61 dB
REM REPLAYGAIN_TRACK_PEAK 0.821808
INDEX 00 07:03:74
FILE "08 - Bobby Boom Bap.flac" WAVE
INDEX 01 00:00:00
Приватный:
Нет (DHT включён)
Размер:
484.15 Мб (507,667,615 байт) » файлов: 14
Участники:
0 раздают, 0 качают (0 участников всего)
Внешние участники:
12 раздают, 4 качают (16 участников всего) [ Обновить ]
Есть вопросы - пишите личное сообщение пользователю M0p94ok.
12:07
48
Нет комментариев. Ваш будет первым!