Поиск

(Jazz-Funk, Fusion, Contemporary Jazz) [CD] Kamasi Washington - Light of the World - 2008, FLAC (tracks+.cue), lossless

(Jazz-Funk, Fusion, Contemporary Jazz) [CD] Kamasi Washington - Light of the World - 2008, FLAC (tracks+.cue), lossless
Треклист:
Kamasi Washington - Light of the World (Dedicated to Roland Edwards Jr)
Жанр: Jazz-Funk, Fusion, Contemporary Jazz
Носитель: CD
Страна-производитель диска (релиза): США
Год издания: 2008
Издатель (лейбл): Self-Released
Аудиокодек: FLAC (*.flac)
Тип рипа: tracks+.cue
Битрейт аудио: lossless
Продолжительность: 65:22
Источник (релизер): oregano32423 (what)
Наличие сканов в содержимом раздачи: нет
Треклист:
01. Going Up Yonder (Hawkins) - 12:58
02. The Way, The Truth, and The Light (Washington-Coleman-Deal-Miller) - 3:48
03. Give Thanks (Smith) - 13:29
04. The Lord's Prayer (Washington-Coleman-Deal-Miller-Porter-Mahni-Xan) - 4:27
05. Amazing Grace (Newton) - 9:04
06. Listen Closely (Washington) - 13:51
07. When I Think About Jesus (Brown) - 7:45
Состав:
Kamasi Washington - tenor saxophone
Brandon Coleman - Rhodes
Robert Miller - drums
Jae Deal - bass
Ryan Porter - trombone (#4)
Mahni-Xan - vocals (#4)
 
Лог создания рипа
X Lossless Decoder version 20151214 (149.1)
XLD extraction logfile from 2016-10-04 00:26:26 -0400
Kamasi Washington / Light of the World
Used drive : MATSHITA DVD-R UJ-8A8 (revision HB14)
Media type : Pressed CD
Ripper mode : XLD Secure Ripper
Disable audio cache : OK for the drive with a cache less than 1375KiB
Make use of C2 pointers : NO
Read offset correction : 102
Max retry count : 20
Gap status : Analyzed, Appended (except HTOA)
TOC of the extracted CD
Track | Start | Length | Start sector | End sector
---------------------------------------------------------
1 | 00:00:00 | 12:57:47 | 0 | 58321
2 | 12:57:47 | 03:48:30 | 58322 | 75451
3 | 16:46:02 | 13:29:14 | 75452 | 136140
4 | 30:15:16 | 04:27:30 | 136141 | 156195
5 | 34:42:46 | 09:03:58 | 156196 | 196978
6 | 43:46:29 | 13:51:10 | 196979 | 259313
7 | 57:37:39 | 07:45:27 | 259314 | 294215
AccurateRip Summary
Disc not found in AccurateRip DB.
All Tracks
Album gain : -8.25 dB
Peak : 0.920654
Statistics
Read error : 0
Jitter error (maybe fixed) : 0
Retry sector count : 0
Damaged sector count : 0
Track 01
Filename : /Users/aaronglasser/Downloads/thyme/FLAC/Kamasi Washington - Light of the World (2008) [FLAC]/01 Going Up Yonder.flac
Pre-gap length : 00:02:00
Track gain : -8.77 dB
Peak : 0.920654
CRC32 hash (test run) : AC4CE58A
CRC32 hash : AC4CE58A
CRC32 hash (skip zero) : 09D60FA8
AccurateRip v1 signature : D0625DD0
AccurateRip v2 signature : 50C00C26
->Track not present in AccurateRip database.
Statistics
Read error : 0
Jitter error (maybe fixed) : 0
Retry sector count : 0
Damaged sector count : 0
Track 02
Filename : /Users/aaronglasser/Downloads/thyme/FLAC/Kamasi Washington - Light of the World (2008) [FLAC]/02 The Way, The Truth, and The Light.flac
Pre-gap length : 00:01:45
Track gain : -3.64 dB
Peak : 0.893097
CRC32 hash (test run) : 0694DE3F
CRC32 hash : 0694DE3F
CRC32 hash (skip zero) : 7B171693
AccurateRip v1 signature : 21402B2F
AccurateRip v2 signature : ED1BA861
->Track not present in AccurateRip database.
Statistics
Read error : 0
Jitter error (maybe fixed) : 0
Retry sector count : 0
Damaged sector count : 0
Track 03
Filename : /Users/aaronglasser/Downloads/thyme/FLAC/Kamasi Washington - Light of the World (2008) [FLAC]/03 Give Thanks.flac
Pre-gap length : 00:01:45
Track gain : -9.04 dB
Peak : 0.908447
CRC32 hash (test run) : BB528341
CRC32 hash : BB528341
CRC32 hash (skip zero) : 20845A85
AccurateRip v1 signature : E501B29F
AccurateRip v2 signature : 119C657A
->Track not present in AccurateRip database.
Statistics
Read error : 0
Jitter error (maybe fixed) : 0
Retry sector count : 0
Damaged sector count : 0
Track 04
Filename : /Users/aaronglasser/Downloads/thyme/FLAC/Kamasi Washington - Light of the World (2008) [FLAC]/04 The Lord's Prayer.flac
Pre-gap length : 00:01:45
Track gain : -8.59 dB
Peak : 0.914948
CRC32 hash (test run) : 4FAAFFBA
CRC32 hash : 4FAAFFBA
CRC32 hash (skip zero) : CA44BB77
AccurateRip v1 signature : CE725BCD
AccurateRip v2 signature : 01CF8A33
->Track not present in AccurateRip database.
Statistics
Read error : 0
Jitter error (maybe fixed) : 0
Retry sector count : 0
Damaged sector count : 0
Track 05
Filename : /Users/aaronglasser/Downloads/thyme/FLAC/Kamasi Washington - Light of the World (2008) [FLAC]/05 Amazing Grace.flac
Pre-gap length : 00:01:45
Track gain : -6.33 dB
Peak : 0.870758
CRC32 hash (test run) : 1B943ABE
CRC32 hash : 1B943ABE
CRC32 hash (skip zero) : ACC52681
AccurateRip v1 signature : 56DACBF6
AccurateRip v2 signature : 91BA65B6
->Track not present in AccurateRip database.
Statistics
Read error : 0
Jitter error (maybe fixed) : 0
Retry sector count : 0
Damaged sector count : 0
Track 06
Filename : /Users/aaronglasser/Downloads/thyme/FLAC/Kamasi Washington - Light of the World (2008) [FLAC]/06 Listen Closely.flac
Pre-gap length : 00:01:45
Track gain : -5.58 dB
Peak : 0.904938
CRC32 hash (test run) : 5D960E00
CRC32 hash : 5D960E00
CRC32 hash (skip zero) : CB5DD169
AccurateRip v1 signature : 4E64C0F5
AccurateRip v2 signature : DB3BBDA2
->Track not present in AccurateRip database.
Statistics
Read error : 0
Jitter error (maybe fixed) : 0
Retry sector count : 0
Damaged sector count : 0
Track 07
Filename : /Users/aaronglasser/Downloads/thyme/FLAC/Kamasi Washington - Light of the World (2008) [FLAC]/07 When I Think About Jesus.flac
Pre-gap length : 00:01:45
Track gain : -5.72 dB
Peak : 0.880798
CRC32 hash (test run) : 07C2A8EA
CRC32 hash : 07C2A8EA
CRC32 hash (skip zero) : 3F1E09C6
AccurateRip v1 signature : D801D359
AccurateRip v2 signature : E5937247
->Track not present in AccurateRip database.
Statistics
Read error : 0
Jitter error (maybe fixed) : 0
Retry sector count : 0
Damaged sector count : 0
No errors occurred
End of status report
-----BEGIN XLD SIGNATURE-----
bUZT7AvQjglI5FX300loKZfpqf7Tr8PlzrlzrfVrXs93X2SCksWN2lTHp6PPh4sxJsH6ahMTi5Gtvf2FU4IDVeDusO8RsA4yKvzzUvu
-----END XLD SIGNATURE-----
 
Содержание индексной карты (.CUE)
TITLE "Light of the World"
PERFORMER "Kamasi Washington"
REM GENRE "Jazz"
REM DATE "2008"
REM DISCID 680F5207
REM REPLAYGAIN_ALBUM_GAIN -8.25 dB
REM REPLAYGAIN_ALBUM_PEAK 0.920654
FILE "01 - Going Up Yonder.flac" WAVE
TRACK 01 AUDIO
TITLE "Going Up Yonder"
REM REPLAYGAIN_TRACK_GAIN -8.77 dB
REM REPLAYGAIN_TRACK_PEAK 0.920654
INDEX 01 00:00:00
TRACK 02 AUDIO
TITLE "The Way, The Truth, and The Light"
REM REPLAYGAIN_TRACK_GAIN -3.64 dB
REM REPLAYGAIN_TRACK_PEAK 0.893097
INDEX 00 12:56:02
FILE "02 - The Way, The Truth, and The Light.flac" WAVE
INDEX 01 00:00:00
TRACK 03 AUDIO
TITLE "Give Thanks"
REM REPLAYGAIN_TRACK_GAIN -9.04 dB
REM REPLAYGAIN_TRACK_PEAK 0.908447
INDEX 00 03:46:60
FILE "03 - Give Thanks.flac" WAVE
INDEX 01 00:00:00
TRACK 04 AUDIO
TITLE "The Lord's Prayer"
REM REPLAYGAIN_TRACK_GAIN -8.59 dB
REM REPLAYGAIN_TRACK_PEAK 0.914948
INDEX 00 13:27:44
FILE "04 - The Lord's Prayer.flac" WAVE
INDEX 01 00:00:00
TRACK 05 AUDIO
TITLE "Amazing Grace"
REM REPLAYGAIN_TRACK_GAIN -6.33 dB
REM REPLAYGAIN_TRACK_PEAK 0.870758
INDEX 00 04:25:60
FILE "05 - Amazing Grace.flac" WAVE
INDEX 01 00:00:00
TRACK 06 AUDIO
TITLE "Listen Closely"
REM REPLAYGAIN_TRACK_GAIN -5.58 dB
REM REPLAYGAIN_TRACK_PEAK 0.904938
INDEX 00 09:02:13
FILE "06 - Listen Closely.flac" WAVE
INDEX 01 00:00:00
TRACK 07 AUDIO
TITLE "When I Think About Jesus"
REM REPLAYGAIN_TRACK_GAIN -5.72 dB
REM REPLAYGAIN_TRACK_PEAK 0.880798
INDEX 00 13:49:40
FILE "07 - When I Think About Jesus.flac" WAVE
INDEX 01 00:00:00
Приватный:
Нет (DHT включён)
Размер:
342.33 Мб (358,956,613 байт) » файлов: 13
Участники:
0 раздают, 0 качают (0 участников всего)
Внешние участники:
10 раздают, 3 качают (13 участников всего) [ Обновить ]
No seeders - write a personal message to user M0p94ok. Нет сидеров - пишите личное сообщение пользователю M0p94ok.
12:06
73
Нет комментариев. Ваш будет первым!