Вы используете незарегистрированную версию компонента "Вкладки"!

Поиск

(Jazz, Free Jazz) The Jazz Corps Featuring Roland Kirk - The Jazz Corps Featuring Roland Kirk - 1994, FLAC (image+.cue), lossless

(Jazz, Free Jazz) The Jazz Corps Featuring Roland Kirk - The Jazz Corps Featuring Roland Kirk - 1994, FLAC (image+.cue), lossless
Треклист:
The Jazz Corps Featuring Roland Kirk / The Jazz Corps Featuring Roland Kirk
Жанр: Jazz, Free Jazz
Страна-производитель диска: USA
Год издания: 1994
Издатель (лейбл): Pacific Jazz
Номер по каталогу: CDP 7243 8 29101 2 1
Страна: USA
Аудиокодек: FLAC (*.flac)
Тип рипа: image+.cue
Битрейт аудио: lossless
Продолжительность: 43:40
Источник (релизер): rip itr
Наличие сканов в содержимом раздачи: да
Треклист:
01. Harplyness 4:44
02. Serenity 3:25
03. Peru-T 4:57
04. Liberation 4:24
05. Chalon Pago 3:32
06. Le Blessing 8:13
07. Meanwhile 8:30
08. Another Plum 5:17
 
Лог создания рипа
Exact Audio Copy V1.0 beta 3 from 29. August 2011
EAC extraction logfile from 5. January 2013, 17:06
The Jazz Corps / Featuring Roland Kirk
Used drive : Optiarc DVD RW AD-7250H Adapter: 1 ID: 0
Read mode : Secure
Utilize accurate stream : Yes
Defeat audio cache : No
Make use of C2 pointers : No
Read offset correction : 48
Overread into Lead-In and Lead-Out : No
Fill up missing offset samples with silence : Yes
Delete leading and trailing silent blocks : No
Null samples used in CRC calculations : Yes
Used interface : Native Win32 interface for Win NT & 2000
Used output format : User Defined Encoder
Selected bitrate : 768 kBit/s
Quality : High
Add ID3 tag : No
Command line compressor : C:\Program Files (x86)\Exact Audio Copy\FLAC\FLAC.EXE
Additional command line options : -6 -V -T "ARTIST=%artist%" -T "TITLE=%title%" -T "ALBUM=%albumtitle%" -T "DATE=%year%" -T "TRACKNUMBER=%tracknr%" -T "GENRE=%genre%" -T "COMMENT=%comment%" -T "BAND=%albuminterpret%" -T "ALBUMARTIST=%albuminterpret%" -T "COMPOSER=%composer%" %haslyrics%--tag-from-file=LYRICS="%lyricsfile%"%haslyrics% -T "DISCNUMBER=%cdnumber%" -T "TOTALDISCS=%totalcds%" -T "TOTALTRACKS=%numtracks%" %hascover%--picture="%coverfile%"%hascover% %source% -o %dest%
TOC of the extracted CD
Track | Start | Length | Start sector | End sector
---------------------------------------------------------
1 | 0:00.00 | 4:47.12 | 0 | 21536
2 | 4:47.12 | 3:28.63 | 21537 | 37199
3 | 8:16.00 | 4:59.72 | 37200 | 59696
4 | 13:15.72 | 4:27.23 | 59697 | 79744
5 | 17:43.20 | 3:48.70 | 79745 | 96914
6 | 21:32.15 | 8:17.12 | 96915 | 134201
7 | 29:49.27 | 8:33.20 | 134202 | 172696
8 | 38:22.47 | 5:17.65 | 172697 | 196536
Range status and errors
Selected range
Filename C:\Users\Zoli\Music\R_p\The Jazz Corps - Featuring Roland Kirk\The Jazz Corps - Featuring Roland Kirk.wav
Peak level 100.0 %
Extraction speed 5.8 X
Range quality 99.9 %
Copy CRC 7C51A9A1
Copy OK
No errors occurred
AccurateRip summary
Track 1 cannot be verified as accurate (confidence 2) [9A1E20BE], AccurateRip returned [7E2C25B3] (AR v2)
Track 2 cannot be verified as accurate (confidence 2) [109D6738], AccurateRip returned [AF6F21AA] (AR v2)
Track 3 cannot be verified as accurate (confidence 2) [AD3B5E71], AccurateRip returned [75AF5032] (AR v2)
Track 4 cannot be verified as accurate (confidence 2) [CA119459], AccurateRip returned [0BB23CEB] (AR v2)
Track 5 cannot be verified as accurate (confidence 2) [7D73FE38], AccurateRip returned [1213C95B] (AR v2)
Track 6 cannot be verified as accurate (confidence 2) [467CDA04], AccurateRip returned [EEE79B81] (AR v2)
Track 7 cannot be verified as accurate (confidence 2) [0BCF3C47], AccurateRip returned [8C5B5FBC] (AR v2)
Track 8 cannot be verified as accurate (confidence 2) [948B6733], AccurateRip returned [9473CAA1] (AR v2)
No tracks could be verified as accurate
You may have a different pressing from the one(s) in the database
End of status report
------------------------------------------------------------
Exact Audio Copy V1.0 beta 3 from 29. August 2011
EAC extraction logfile from 5. January 2013, 17:06
The Jazz Corps / Featuring Roland Kirk
Used drive : Optiarc DVD RW AD-7250H Adapter: 1 ID: 0
Read mode : Secure
Utilize accurate stream : Yes
Defeat audio cache : No
Make use of C2 pointers : No
Read offset correction : 48
Overread into Lead-In and Lead-Out : No
Fill up missing offset samples with silence : Yes
Delete leading and trailing silent blocks : No
Null samples used in CRC calculations : Yes
Used interface : Native Win32 interface for Win NT & 2000
Used output format : User Defined Encoder
Selected bitrate : 768 kBit/s
Quality : High
Add ID3 tag : No
Command line compressor : C:\Program Files (x86)\Exact Audio Copy\FLAC\FLAC.EXE
Additional command line options : -6 -V -T "ARTIST=%artist%" -T "TITLE=%title%" -T "ALBUM=%albumtitle%" -T "DATE=%year%" -T "TRACKNUMBER=%tracknr%" -T "GENRE=%genre%" -T "COMMENT=%comment%" -T "BAND=%albuminterpret%" -T "ALBUMARTIST=%albuminterpret%" -T "COMPOSER=%composer%" %haslyrics%--tag-from-file=LYRICS="%lyricsfile%"%haslyrics% -T "DISCNUMBER=%cdnumber%" -T "TOTALDISCS=%totalcds%" -T "TOTALTRACKS=%numtracks%" %hascover%--picture="%coverfile%"%hascover% %source% -o %dest%
TOC of the extracted CD
Track | Start | Length | Start sector | End sector
---------------------------------------------------------
1 | 0:00.00 | 4:47.12 | 0 | 21536
2 | 4:47.12 | 3:28.63 | 21537 | 37199
3 | 8:16.00 | 4:59.72 | 37200 | 59696
4 | 13:15.72 | 4:27.23 | 59697 | 79744
5 | 17:43.20 | 3:48.70 | 79745 | 96914
6 | 21:32.15 | 8:17.12 | 96915 | 134201
7 | 29:49.27 | 8:33.20 | 134202 | 172696
8 | 38:22.47 | 5:17.65 | 172697 | 196536
Range status and errors
Selected range
Filename C:\Users\Zoli\Music\R_p\The Jazz Corps - Featuring Roland Kirk\The Jazz Corps - Featuring Roland Kirk.wav
Peak level 100.0 %
Extraction speed 5.8 X
Range quality 99.9 %
Copy CRC 7C51A9A1
Copy OK
No errors occurred
AccurateRip summary
Track 1 cannot be verified as accurate (confidence 2) [9A1E20BE], AccurateRip returned [7E2C25B3] (AR v2)
Track 2 cannot be verified as accurate (confidence 2) [109D6738], AccurateRip returned [AF6F21AA] (AR v2)
Track 3 cannot be verified as accurate (confidence 2) [AD3B5E71], AccurateRip returned [75AF5032] (AR v2)
Track 4 cannot be verified as accurate (confidence 2) [CA119459], AccurateRip returned [0BB23CEB] (AR v2)
Track 5 cannot be verified as accurate (confidence 2) [7D73FE38], AccurateRip returned [1213C95B] (AR v2)
Track 6 cannot be verified as accurate (confidence 2) [467CDA04], AccurateRip returned [EEE79B81] (AR v2)
Track 7 cannot be verified as accurate (confidence 2) [0BCF3C47], AccurateRip returned [8C5B5FBC] (AR v2)
Track 8 cannot be verified as accurate (confidence 2) [948B6733], AccurateRip returned [9473CAA1] (AR v2)
No tracks could be verified as accurate
You may have a different pressing from the one(s) in the database
End of status report
 
Состав
Tommy Peltier - cornet, flugelhorn
Roland Kirk - flute, stritch, tenor saxophone, baritone saxophone
Freddy Rodriguez - flute, alto saxophone, tenor saxophone
Lynn Blessing - vibes
Bill Plummer - bass
Maurice Miller - drums
Any questions -> support@pro-jazz.com. По всем вопросам пишите -> support@pro-jazz.com
07:38
190
Нет комментариев. Ваш будет первым!