Поиск

(Jazz, Free Jazz, Modern Creative, Tzadik) Ben Goldberg - Speech Communication - 2009, FLAC (tracks+.cue), lossless

(Jazz, Free Jazz, Modern Creative, Tzadik) Ben Goldberg - Speech Communication - 2009, FLAC (tracks+.cue), lossless
Треклист:
Ben Goldberg - Speech Communication
Жанр: Jazz, Free Jazz, Modern Creative, Tzadik
Год выпуска диска: 2009
Производитель диска: Tzadik
Аудио кодек: FLAC
Тип рипа: tracks+.cue
Битрейт аудио: lossless
Трэклист:
1. (00:02:26) Language Behavior
2. (00:07:02) Habituary
3. (00:03:58) Amr
4. (00:09:24) Head And Tails
5. (00:05:17) Avodyah
6. (00:07:50) Song #1
7. (00:04:42) Papermaker
8. (00:04:59) Drops Off
9. (00:04:44) Palindromic
10. (00:05:39) Snow Note
11. (00:03:04) Epilogue ... BONGOLOID
Ben Goldberg (clarinet & contra alto clarinet)
Greg Cohen (double bass)
Kenny Wollesen (drums)
recorded March 2009
released 2009
 
скрытый текст
Exact Audio Copy V0.99 prebeta 5 from 4. May 2009
EAC extraction logfile from 8. December 2009, 0:02
Ben Goldberg / Speech Communication
Used drive : PLEXTOR CD-R PREMIUM2 Adapter: 3 ID: 0
Read mode : Secure
Utilize accurate stream : Yes
Defeat audio cache : Yes
Make use of C2 pointers : No
Read offset correction : 30
Overread into Lead-In and Lead-Out : Yes
Fill up missing offset samples with silence : Yes
Delete leading and trailing silent blocks : No
Null samples used in CRC calculations : Yes
Used interface : Native Win32 interface for Win NT & 2000
Gap handling : Appended to previous track
Used output format : User Defined Encoder
Selected bitrate : 128 kBit/s
Quality : High
Add ID3 tag : No
Command line compressor : D:\Programme\EAC099\Flac\flac.exe
Additional command line options : -5 -V -T "ARTIST=%a" -T "TITLE=%t" -T "ALBUM=%g" -T "DATE=%y" -T "TRACKNUMBER=%n" -T "TOTALTRACKS=%x" -T "GENRE=%m" -T "ALBUM ARTIST=%v" -T "ALBUMARTIST=%v" -T "COMMENT=EAC V0.99 prebeta 5, Secure Mode, Test & Copy, Accurat
TOC of the extracted CD
Track | Start | Length | Start sector | End sector
---------------------------------------------------------
1 | 0:00.00 | 2:25.50 | 0 | 10924
2 | 2:25.50 | 7:01.60 | 10925 | 42559
3 | 9:27.35 | 3:58.15 | 42560 | 60424
4 | 13:25.50 | 9:23.42 | 60425 | 102691
5 | 22:49.17 | 5:16.44 | 102692 | 126435
6 | 28:05.61 | 7:50.23 | 126436 | 161708
7 | 35:56.09 | 4:42.37 | 161709 | 182895
8 | 40:38.46 | 4:58.71 | 182896 | 205316
9 | 45:37.42 | 4:44.14 | 205317 | 226630
10 | 50:21.56 | 5:38.48 | 226631 | 252028
11 | 56:00.29 | 3:03.57 | 252029 | 265810
Track 1
Filename E:\Share\Jazz\F-J\Ben Goldberg - Speech Communication (2009) [FLAC] {Tzadik TZ 8146}\01 - Language Behavior.wav
Pre-gap length 0:00:02.00
Peak level 71.0 %
Track quality 100.0 %
Test CRC B97C049C
Copy CRC B97C049C
Track not present in AccurateRip database
Copy OK
Track 2
Filename E:\Share\Jazz\F-J\Ben Goldberg - Speech Communication (2009) [FLAC] {Tzadik TZ 8146}\02 - Habituary.wav
Peak level 96.6 %
Track quality 100.0 %
Test CRC 6408AE98
Copy CRC 6408AE98
Track not present in AccurateRip database
Copy OK
Track 3
Filename E:\Share\Jazz\F-J\Ben Goldberg - Speech Communication (2009) [FLAC] {Tzadik TZ 8146}\03 - Amr.wav
Peak level 96.6 %
Track quality 100.0 %
Test CRC D0A50470
Copy CRC D0A50470
Track not present in AccurateRip database
Copy OK
Track 4
Filename E:\Share\Jazz\F-J\Ben Goldberg - Speech Communication (2009) [FLAC] {Tzadik TZ 8146}\04 - Head And Tails.wav
Peak level 96.6 %
Track quality 100.0 %
Test CRC 821D4ACB
Copy CRC 821D4ACB
Track not present in AccurateRip database
Copy OK
Track 5
Filename E:\Share\Jazz\F-J\Ben Goldberg - Speech Communication (2009) [FLAC] {Tzadik TZ 8146}\05 - Avodyah.wav
Peak level 96.6 %
Track quality 100.0 %
Test CRC A35FFEA7
Copy CRC A35FFEA7
Track not present in AccurateRip database
Copy OK
Track 6
Filename E:\Share\Jazz\F-J\Ben Goldberg - Speech Communication (2009) [FLAC] {Tzadik TZ 8146}\06 - Song #1.wav
Peak level 96.6 %
Track quality 100.0 %
Test CRC 6BDF86A0
Copy CRC 6BDF86A0
Track not present in AccurateRip database
Copy OK
Track 7
Filename E:\Share\Jazz\F-J\Ben Goldberg - Speech Communication (2009) [FLAC] {Tzadik TZ 8146}\07 - Papermaker.wav
Peak level 96.6 %
Track quality 100.0 %
Test CRC 2A2932C9
Copy CRC 2A2932C9
Track not present in AccurateRip database
Copy OK
Track 8
Filename E:\Share\Jazz\F-J\Ben Goldberg - Speech Communication (2009) [FLAC] {Tzadik TZ 8146}\08 - Drops Off.wav
Peak level 96.6 %
Track quality 100.0 %
Test CRC F26E0BF2
Copy CRC F26E0BF2
Track not present in AccurateRip database
Copy OK
Track 9
Filename E:\Share\Jazz\F-J\Ben Goldberg - Speech Communication (2009) [FLAC] {Tzadik TZ 8146}\09 - Palindromic.wav
Peak level 96.6 %
Track quality 100.0 %
Test CRC 69CDE9C9
Copy CRC 69CDE9C9
Track not present in AccurateRip database
Copy OK
Track 10
Filename E:\Share\Jazz\F-J\Ben Goldberg - Speech Communication (2009) [FLAC] {Tzadik TZ 8146}\10 - Snow Note.wav
Peak level 96.6 %
Track quality 100.0 %
Test CRC 7593030D
Copy CRC 7593030D
Track not present in AccurateRip database
Copy OK
Track 11
Filename E:\Share\Jazz\F-J\Ben Goldberg - Speech Communication (2009) [FLAC] {Tzadik TZ 8146}\11 - Epilogue ... BONGOLOID.wav
Peak level 96.6 %
Track quality 100.0 %
Test CRC 6D6745A9
Copy CRC 6D6745A9
Track not present in AccurateRip database
Copy OK
None of the tracks are present in the AccurateRip database
No errors occurred
End of status report
Tzadik Radical Jewish Culture
TZ 8146
По всем вопросам пишите личное сообщение пользователю M0p94ok.
17:19
132
Нет комментариев. Ваш будет первым!