Поиск

(Jazz) Eric Dolphy - Conversations - 1963, FLAC (tracks+.cue), lossless

(Jazz) Eric Dolphy - Conversations - 1963, FLAC (tracks+.cue), lossless
Треклист:
Eric Dolphy - Conversations (1963)
Жанр: Jazz
Год выпуска диска: 1963
Производитель диска: Portugal
Аудио кодек: FLAC
Тип рипа: tracks+.cue
Битрейт аудио: lossless
Трэклист:
01 - Jitterbug Waltz (7:17) (Waller)
02 - Music Matador (9:35) (Lasha-Simmons)
03 - Love Me (3:22) (Young-Washington)
04 - Alone Together (13:36) (Dietz-Schwartz)
Доп. информация: Review by Steve Huey
Info
In mid-1963 (probably July, though some sources place the dates in May or June), Eric Dolphy recorded some sessions in New York with producer Alan Douglas, the fruits of which were issued on small labels as the LPs Conversations and Iron Man. They've been reissued a number of times on various labels, occasionally compiled together, but never with quite the treatment they deserve (which is perhaps why they're not as celebrated as they should be). In whatever form, though, it's classic, essential Dolphy that stands as some of his finest work past Out to Lunch. Conversations is the more eclectic of the two, featuring radical re-imaginings of three standards, plus the jubilant, Caribbean-flavored "Music Matador" (by ensemble members Prince Lasha [flute] and Sonny Simmons [alto]). That cut and a classic inside/outside reworking of Fats Waller's "Jitterbug Waltz" feature Dolphy leading ensembles of up-and-coming "new thing" players, which prominently feature vibist Bobby Hutcherson and trumpeter Woody Shaw. The second half of the album takes a far more minimalist approach, with Dolphy performing unaccompanied (extremely rare prior to Anthony Braxton's For Alto) on "Love Me." "Alone Together" is an over-13-minute duet between Dolphy and bassist Richard Davis, featuring some astoundingly telepathic exchanges that more than justify its length. Even if the selections don't completely hang together as an LP statement, they're united by Dolphy's generally brilliant playing and a sense that -- after several years without entering the studio much as a leader -- Dolphy was really striving to push his (and others') music forward. The results are richly rewarding, making Conversations one of the landmarks in his catalog.
Log:
 
скрытый текст
EAC extraction logfile from 23. May 2006, 19:03 for CD
Eric Dolphy / Conversations
Used drive : TSSTcorpCD/DVDW TS-H542A Adapter: 1 ID: 0
Read mode : Secure with NO C2, accurate stream, disable cache
Read offset correction : 116
Overread into Lead-In and Lead-Out : No
Used output format : Internal WAV Routines
44.100 Hz; 16 Bit; Stereo
Other options :
Fill up missing offset samples with silence : Yes
Delete leading and trailing silent blocks : No
Installed external ASPI interface
Track 1
Filename F:\Seeds\Eric Dolphy - Conversations (1963) [FLAC]\01 - Jitterbug Waltz.wav
Pre-gap length 0:00:02.00
Peak level 56.5 %
Track quality 100.0 %
Test CRC 2C2CA7DD
Copy CRC 2C2CA7DD
Copy OK
Track 2
Filename F:\Seeds\Eric Dolphy - Conversations (1963) [FLAC]\02 - Music Matador.wav
Peak level 46.7 %
Track quality 100.0 %
Test CRC 2F2A2C98
Copy CRC 2F2A2C98
Copy OK
Track 3
Filename F:\Seeds\Eric Dolphy - Conversations (1963) [FLAC]\03 - Love Me.wav
Peak level 23.2 %
Track quality 100.0 %
Test CRC 87A3F05C
Copy CRC 87A3F05C
Copy OK
Track 4
Filename F:\Seeds\Eric Dolphy - Conversations (1963) [FLAC]\04 - Alone Together.wav
Peak level 42.4 %
Track quality 100.0 %
Test CRC 0EABB3D1
Copy CRC 0EABB3D1
Copy OK
No errors occured
End of status report
Если будет интерес, то могу выложить и Iron Man.
Приватный:
Нет (DHT включён)
Размер:
209.55 Мб (219,730,397 байт) » файлов: 15
Участники:
0 раздают, 0 качают (0 участников всего)
Внешние участники:
3 раздают, 1 качают (4 участников всего) [ Обновить ]
No seeders - write a personal message to user M0p94ok. Нет сидеров - пишите личное сообщение пользователю M0p94ok.
03:42
82
Нет комментариев. Ваш будет первым!