Поиск

(jazz, avantgarde, soundtrack) John Zorn - Filmworks XVI - Workingman's Death - 2005, APE (image + .cue), lossless

Треклист:
John Zorn - Filmworks XVI - Workingman's Death
Жанр: jazz, avantgarde, soundtrack
Год выпуска: 2005
Формат: APE (image + .cue)
Битрейт аудио: lossless
Продолжительность: 1:01:16
Трэклист:
1. Gadani Slipway (9:01)
2. Juju (6:14)
3. Sulphur Mining (6:29)
4. Horn Carrier (3:16)
5. Atmosphere (2:13)
6. The Miners (3:05)
7. Steel Foundry (6:01)
8. Word Trance (3:20)
9. Ghost Ship (2:51)
10.Dark Caves (3:17)
11.Slaughterhouse (9:09)
12.Guitar Juju (6:20)
 
скрытый текст
Exact Audio Copy V0.99 prebeta 4 from 23. January 2008
Отчёт EAC об извлечении, выполненном 10. марта 2008, 21:03
John Zorn / Filmworks XVI - Workingman's Death
Дисковод: _NEC DVD_RW ND-4550A Adapter: 0 ID: 1
Режим чтения : Достоверность
Использование точного потока : Да
Отключение кэша аудио : Да
Использование указателей C2 : Нет
Коррекция смещения при чтении : 48
Способность читать области Lead-in и Lead-out : Нет
Заполнение пропущенных сэмплов тишиной : Да
Удаление блоков с тишиной в начале и конце : Нет
При вычислениях CRC использовались нулевые сэмплы : Да
Интерфейс : Установленный внешний ASPI-интерфейс
Выходной формат : Внутренние WAV-операции
Формат сэмплов : 44.100 Гц; 16 бит; стерео
TOC извлечённого CD
Трек | Старт | Длительность | Начальный сектор | Конечный сектор
---------------------------------------------------------------------
1 | 0:00.00 | 9:01.60 | 0 | 40634
2 | 9:01.60 | 6:14.66 | 40635 | 68750
3 | 15:16.51 | 6:29.55 | 68751 | 97980
4 | 21:46.31 | 3:16.58 | 97981 | 112738
5 | 25:03.14 | 2:13.38 | 112739 | 122751
6 | 27:16.52 | 3:05.68 | 122752 | 136694
7 | 30:22.45 | 6:01.01 | 136695 | 163770
8 | 36:23.46 | 3:20.61 | 163771 | 178831
9 | 39:44.32 | 2:51.07 | 178832 | 191663
10 | 42:35.39 | 3:17.70 | 191664 | 206508
11 | 45:53.34 | 9:09.61 | 206509 | 247744
12 | 55:03.20 | 6:20.24 | 247745 | 276268
Характеристики диапазона извлечения и сообщения об ошибках
Выбранный диапазон
Имя файла G:\Torrents\John Zorn - Filmworks XVI\John Zorn - Filmworks XVI - Workingman's Death.wav
Пиковый уровень 100.0 %
Качество диапазона 99.9 %
CRC копии 0E2FAC67
Копирование... OK
Ошибок не произошло
AccurateRip: сводка
Трек 1 нет в базе данных
Трек 2 нет в базе данных
Трек 3 нет в базе данных
Трек 4 нет в базе данных
Трек 5 нет в базе данных
Трек 6 нет в базе данных
Трек 7 нет в базе данных
Трек 8 нет в базе данных
Трек 9 нет в базе данных
Трек 10 нет в базе данных
Трек 11 нет в базе данных
Трек 12 нет в базе данных
Ни одного трека нет в базе AccurateRip
Конец отчёта
Состав:
CYRO BAPTISTA - percussion
IKUE MORI - electronics
JOHN ZORN - organ, gamelan
JAMIE SAFT - electric piano, guitar
SHANIR EZRA BLUMENKRANZ - bass on track 12
Recorded & mixed by JAMIE SAFT and DAN STEIN at FRANK BOOTH, Brooklyn, NY January - March 2005
Внутри раздачи - все сканы 300 dpi.
Приватный:
Нет (DHT включён)
Размер:
322.07 Мб (337,718,382 байт) » файлов: 13
Участники:
0 раздают, 0 качают (0 участников всего)
Внешние участники:
2 раздают, 1 качают (3 участников всего) [ Обновить ]
Есть вопросы - пишите личное сообщение пользователю M0p94ok.
23:59
42
Нет комментариев. Ваш будет первым!