Поиск

(Jazz, avantgarde, soundtrack) John Zorn - Filmworks XIV - Hiding & Seeking - 2003, APE (image + .cue), lossless

Треклист:
John Zorn - Filmworks XIV - Hiding & Seeking
Жанр: Jazz, avantgarde, soundtrack
Год выпуска: 2003
Формат: APE (image + .cue)
Битрейт аудио: lossless
Продолжительность: 53:28
Трэклист:
1. Merkabah (vocal) (6:23)
2. Sekhel (4:40)
3. Zhakor (vocal) (3:45)
4. Muflah (5:18)
5. Abulafia (2:26)
6. Abulafia (vocal) (3:39)
7. Chirik (4:26)
8. Moadim (3:28)
9. Zhakor (4:24)
10. Sekhel (vocal) (4:59)
11. Adamah (4:29)
12. Merkabah (5:31)
 
скрытый текст
Exact Audio Copy V0.99 prebeta 4 from 23. January 2008
Отчёт EAC об извлечении, выполненном 10. марта 2008, 20:43
John Zorn / Filmworks XIV: Hiding and Seeking
Дисковод: _NEC DVD_RW ND-4550A Adapter: 0 ID: 1
Режим чтения : Достоверность
Использование точного потока : Да
Отключение кэша аудио : Да
Использование указателей C2 : Нет
Коррекция смещения при чтении : 48
Способность читать области Lead-in и Lead-out : Нет
Заполнение пропущенных сэмплов тишиной : Да
Удаление блоков с тишиной в начале и конце : Нет
При вычислениях CRC использовались нулевые сэмплы : Да
Интерфейс : Установленный внешний ASPI-интерфейс
Выходной формат : Внутренние WAV-операции
Формат сэмплов : 44.100 Гц; 16 бит; стерео
TOC извлечённого CD
Трек | Старт | Длительность | Начальный сектор | Конечный сектор
---------------------------------------------------------------------
1 | 0:00.00 | 6:23.46 | 0 | 28770
2 | 6:23.46 | 4:40.14 | 28771 | 49784
3 | 11:03.60 | 3:45.26 | 49785 | 66685
4 | 14:49.11 | 5:18.74 | 66686 | 90609
5 | 20:08.10 | 2:26.61 | 90610 | 101620
6 | 22:34.71 | 3:39.53 | 101621 | 118098
7 | 26:14.49 | 4:26.18 | 118099 | 138066
8 | 30:40.67 | 3:28.19 | 138067 | 153685
9 | 34:09.11 | 4:24.12 | 153686 | 173497
10 | 38:33.23 | 4:59.16 | 173498 | 195938
11 | 43:32.39 | 4:29.35 | 195939 | 216148
12 | 48:01.74 | 5:31.33 | 216149 | 241006
Характеристики диапазона извлечения и сообщения об ошибках
Выбранный диапазон
Имя файла G:\Torrents\John Zorn - Filmworks XIV\John Zorn - Filmworks XIV Hiding and Seeking.wav
Пиковый уровень 100.0 %
Качество диапазона 99.9 %
CRC копии B3E240EF
Копирование... OK
Ошибок не произошло
AccurateRip: сводка
Трек 1 точность не определена (достоверность 1) [7E5922D4], AccurateRip вернул [2682F6FA]
Трек 2 точность не определена (достоверность 1) [CA80E465], AccurateRip вернул [FFE94836]
Трек 3 точность не определена (достоверность 1) [C4482985], AccurateRip вернул [BADFF7D7]
Трек 4 точность не определена (достоверность 1) [1F053CA3], AccurateRip вернул [8666B50E]
Трек 5 точность не определена (достоверность 1) [A4A44F20], AccurateRip вернул [C64B6048]
Трек 6 точность не определена (достоверность 1) [26405597], AccurateRip вернул [492E2A7B]
Трек 7 точность не определена (достоверность 1) [E06156A3], AccurateRip вернул [444EB0B2]
Трек 8 точность не определена (достоверность 1) [876DCFCF], AccurateRip вернул [5070E3F9]
Трек 9 точность не определена (достоверность 1) [D9771E47], AccurateRip вернул [AC1FAD55]
Трек 10 точность не определена (достоверность 1) [317FCF9B], AccurateRip вернул [155050E4]
Трек 11 точность не определена (достоверность 1) [616DE790], AccurateRip вернул [9B0FBDAD]
Трек 12 точность не определена (достоверность 1) [57B76F94], AccurateRip вернул [C84DB004]
Ни один трек не прошёл проверки на точность
В вашей базе может быть иной вариант штамповки диска
Конец отчёта
Состав:
Marc Ribot - guitar
Kenny Wollesen - vibraphone
Trevor Dunn - bass
Cyro Baptista - percussion
Ganda Suthivarakom - voice
Recorded & mixed by Jamie Saft at FRANK BOOTH, BROOKLYN, NY april 2003
Приватный:
Нет (DHT включён)
Размер:
292.70 Мб (306,915,513 байт) » файлов: 11
Участники:
0 раздают, 0 качают (0 участников всего)
Внешние участники:
2 раздают, 1 качают (3 участников всего) [ Обновить ]
Есть вопросы - пишите личное сообщение пользователю M0p94ok.
23:59
94
Нет комментариев. Ваш будет первым!