Поиск

(Jazz avant-garde) John Zorn - The Book Of Heads (1978) - 1995, FLAC (image+.cue), lossless

(Jazz avant-garde) John Zorn - The Book Of Heads (1978) - 1995, FLAC (image+.cue), lossless
Треклист:
John Zorn - The Book Of Heads (1978)
Жанр: Jazz avant-garde
Год выпуска диска: 1995
Производитель диска: Россия
Аудио кодек: FLAC
Тип рипа: image+.cue
Битрейт аудио: lossless
Продолжительность: 56:22
 
Трэклист
35 etudes for solo guitar
1. The Book of Heads: Étude 1 (2:40)
2. The Book of Heads: Étude 2 (0:27)
3. The Book of Heads: Étude 3 (0:34)
4. The Book of Heads: Étude 4 (2:00)
5. The Book of Heads: Étude 5 (2:41)
6. The Book of Heads: Étude 6 (0:57)
7. The Book of Heads: Étude 7 (2:32)
8. The Book of Heads: Étude 8 (1:21)
9. The Book of Heads: Étude 9 (1:05)
10. The Book of Heads: Étude 10 (0:26)
11. The Book of Heads: Étude 11 (2:00)
12. The Book of Heads: Étude 12 (1:46)
13. The Book of Heads: Étude 13 (2:14)
14. The Book of Heads: Étude 14 (0:33)
15. The Book of Heads: Étude 15 (1:53)
16. The Book of Heads: Étude 16 (1:22)
17. The Book of Heads: Étude 17 (0:41)
18. The Book of Heads: Étude 18 (0:23)
19. The Book of Heads: Étude 19 (0:37)
20. The Book of Heads: Étude 20 (1:15)
21. The Book of Heads: Étude 21 (2:16)
22. The Book of Heads: Étude 22 (1:47)
23. The Book of Heads: Étude 23 (3:02)
24. The Book of Heads: Étude 24 (1:47)
25. The Book of Heads: Étude 25 (0:53)
26. The Book of Heads: Étude 26 (0:32)
27. The Book of Heads: Étude 27 (1:25)
28. The Book of Heads: Étude 28 (3:03)
29. The Book of Heads: Étude 29 (2:06)
30. The Book of Heads: Étude 30 (2:45)
31. The Book of Heads: Étude 31 (1:05)
32. The Book of Heads: Étude 32 (1:26)
33. The Book of Heads: Étude 33 (1:17)
34. The Book of Heads: Étude 34 (1:14)
35. The Book of Heads: Étude 35 (1:22)
 
Дополнительная информация
Composed in 1978 for Eugene Chadbourne, The Book of Heads was eventually released in 1995 as a recording performed by guitarist Marc Ribot. Inspired by Chadbourne, the album is also a tribute to his experimental swan diving in the world of guitar music. This series of études for guitar employs a variety of techniques, from playing with toy balloons, talking dolls, mbira keys, wet finger whoops, and bowing, to removing the strings from the bridge and playing with pencils and bits of rice, as well as a host of other approaches. The music ranges from the overtly weird to beautiful, little, classically-influenced morsels and deconstructed folk songs. There are 35 études in all, and as one might expect on a Zorn album, they all vary greatly. Ribot is obviously having fun on this release, and he has been praised by Zorn for the care he took in its execution. Such erratic work could be tossed off as mere noodling, but Ribot puts his heart into this performance and it shows. Stacia Proefrock, All Music Guide
 
Отчёт EAC
Exact Audio Copy V0.99 prebeta 1 from 25. May 2007
Отчёт EAC об извлечении, выполненном 15. ноября 2008, 14:42
John Zorn / The Book Of Heads
Дисковод: Optiarc DVD RW AD-5170A Adapter: 1 ID: 1
Режим чтения : Достоверность
Использование точного потока : Да
Отключение кэша аудио : Да
Использование указателей C2 : Нет
Коррекция смещения при чтении : 48
Способность читать области Lead-in и Lead-out : Да
Заполнение пропущенных сэмплов тишиной : Да
Удаление блоков с тишиной в начале и конце : Нет
Интерфейс : Встроенный Win32-интерфейс для Win NT/2000
Выходной формат : Пользовательский кодировщик
Выбранный битрейт : 32 kBit/s
Качество : Высокий
Добавление ID3-тэга : Нет
Утилита сжатия : C:\Program Files\Exact Audio Copy\Flac\flac.exe
Дополнительные параметры : -6 -V -T "ARTIST=%a" -T "TITLE=%t" -T "ALBUM=%g" -T "DATE=%y" -T "TRACKNUMBER=%n" -T "GENRE=%m" -T "COMMENT=%e" %s -o %d
TOC извлечённого CD
Трек | Старт | Длительность | Начальный сектор | Конечный сектор
---------------------------------------------------------------------
1 | 0:00.00 | 2:44.67 | 0 | 12366
2 | 2:44.67 | 0:32.03 | 12367 | 14769
3 | 3:16.70 | 0:39.20 | 14770 | 17714
4 | 3:56.15 | 2:04.15 | 17715 | 27029
5 | 6:00.30 | 2:46.12 | 27030 | 39491
6 | 8:46.42 | 1:02.38 | 39492 | 44179
7 | 9:49.05 | 2:36.72 | 44180 | 55951
8 | 12:26.02 | 1:25.70 | 55952 | 62396
9 | 13:51.72 | 1:10.60 | 62397 | 67706
10 | 15:02.57 | 0:31.00 | 67707 | 70031
11 | 15:33.57 | 2:04.55 | 70032 | 79386
12 | 17:38.37 | 1:51.73 | 79387 | 87784
13 | 19:30.35 | 2:18.52 | 87785 | 98186
14 | 21:49.12 | 0:38.30 | 98187 | 101066
15 | 22:27.42 | 1:58.00 | 101067 | 109916
16 | 24:25.42 | 1:27.15 | 109917 | 116456
17 | 25:52.57 | 0:46.33 | 116457 | 119939
18 | 26:39.15 | 0:27.65 | 119940 | 122029
19 | 27:07.05 | 0:42.55 | 122030 | 125234
20 | 27:49.60 | 1:20.32 | 125235 | 131266
21 | 29:10.17 | 2:20.65 | 131267 | 141831
22 | 31:31.07 | 1:51.65 | 141832 | 150221
23 | 33:22.72 | 3:08.45 | 150222 | 164366
24 | 36:31.42 | 1:52.25 | 164367 | 172791
25 | 38:23.67 | 0:58.05 | 172792 | 177146
26 | 39:21.72 | 0:37.33 | 177147 | 179954
27 | 39:59.30 | 1:29.57 | 179955 | 186686
28 | 41:29.12 | 3:08.08 | 186687 | 200794
29 | 44:37.20 | 2:11.00 | 200795 | 210619
30 | 46:48.20 | 2:50.17 | 210620 | 223386
31 | 49:38.37 | 1:09.63 | 223387 | 228624
32 | 50:48.25 | 1:30.57 | 228625 | 235431
33 | 52:19.07 | 1:22.33 | 235432 | 241614
34 | 53:41.40 | 1:18.60 | 241615 | 247524
35 | 55:00.25 | 1:22.45 | 247525 | 253719
Характеристики диапазона извлечения и сообщения об ошибках
Выбранный диапазон
Имя файла E:\Music\John Zorn_The Book Of Heads (1978)\John Zorn - The Book Of Heads.wav
Пиковый уровень 98.8 %
Качество диапазона 99.9 %
CRC копии 29F1F164
Копирование... OK
Ошибок не произошло
Конец отчёта
Приватный:
Нет (DHT включён)
Размер:
158.16 Мб (165,846,657 байт) » файлов: 9
Участники:
0 раздают, 0 качают (0 участников всего)
Внешние участники:
2 раздают, 1 качают (3 участников всего) [ Обновить ]
No seeders - write a personal message to user M0p94ok. Нет сидеров - пишите личное сообщение пользователю M0p94ok.
05:23
56
Нет комментариев. Ваш будет первым!