Поиск

(Jazz, Avant, Contemporary) John Zorn & Bobby Previte - Euclid's Nightmare - 1997, APE (image+.cue), lossless

Треклист:
John Zorn & Bobby Previte - Euclid's Nightmare
Жанр: Jazz, Avant, Contemporary
Год выпуска диска: 1997
Производитель диска: USA
Лейбл: Depth Of Field
Аудио кодек: APE
Тип рипа: image+.cue
Битрейт аудио: lossless
Продолжительность: 43 min
Трэклист:
Euclid's Nightmare
1 - 27
Доп. информация: Рип сделан с оригинального CD DOF 1-2
Музыканты:
John Zorn - saxophone
Bobby Previte - drums
Данный альбомчик, из двадцати семи композиций без названия, только для смельчаков...
Своеобразная редкость... Нашел еле-еле только в чикаге...
 
EAC Log
Exact Audio Copy V0.99 prebeta 4 from 23. January 2008
EAC extraction logfile from 12. November 2008, 20:30
Bobby Previte & John Zorn / Euclid's Nightmare
Used drive : TSSTcorpCD/DVDW SH-W162C Adapter: 0 ID: 0
Read mode : Secure
Utilize accurate stream : Yes
Defeat audio cache : Yes
Make use of C2 pointers : No
Read offset correction : 6
Overread into Lead-In and Lead-Out : No
Fill up missing offset samples with silence : Yes
Delete leading and trailing silent blocks : No
Null samples used in CRC calculations : Yes
Used interface : Installed external ASPI interface
Used output format : Internal WAV Routines
Sample format : 44.100 Hz; 16 Bit; Stereo
Use compression offset : 0
TOC of the extracted CD
Track | Start | Length | Start sector | End sector
---------------------------------------------------------
1 | 0:00.00 | 1:07.22 | 0 | 5046
2 | 1:07.22 | 1:05.65 | 5047 | 9986
3 | 2:13.12 | 1:09.58 | 9987 | 15219
4 | 3:22.70 | 1:06.70 | 15220 | 20239
5 | 4:29.65 | 2:02.57 | 20240 | 29446
6 | 6:32.47 | 1:06.05 | 29447 | 34401
7 | 7:38.52 | 1:03.60 | 34402 | 39186
8 | 8:42.37 | 2:00.63 | 39187 | 48249
9 | 10:43.25 | 1:01.67 | 48250 | 52891
10 | 11:45.17 | 1:41.45 | 52892 | 60511
11 | 13:26.62 | 1:05.53 | 60512 | 65439
12 | 14:32.40 | 0:59.45 | 65440 | 69909
13 | 15:32.10 | 1:07.10 | 69910 | 74944
14 | 16:39.20 | 2:02.72 | 74945 | 84166
15 | 18:42.17 | 2:06.05 | 84167 | 93621
16 | 20:48.22 | 2:04.70 | 93622 | 102991
17 | 22:53.17 | 1:01.33 | 102992 | 107599
18 | 23:54.50 | 1:03.55 | 107600 | 112379
19 | 24:58.30 | 3:43.45 | 112380 | 129149
20 | 28:42.00 | 1:13.55 | 129150 | 134679
21 | 29:55.55 | 2:06.05 | 134680 | 144134
22 | 32:01.60 | 2:38.22 | 144135 | 156006
23 | 34:40.07 | 1:13.50 | 156007 | 161531
24 | 35:53.57 | 1:07.55 | 161532 | 166611
25 | 37:01.37 | 1:02.33 | 166612 | 171294
26 | 38:03.70 | 1:19.60 | 171295 | 177279
27 | 39:23.55 | 4:01.27 | 177280 | 195381
Range status and errors
Selected range
Filename C:\John Zorn & Bobby Previte (1997) Euclid's Nightmare\Bobby Previte & John Zorn - Euclid's Nightmare.wav
Peak level 100.0 %
Range quality 100.0 %
Copy CRC 7A121E6E
Copy OK
No errors occurred
End of status report
Мои раздачи
Приватный:
Нет (DHT включён)
Размер:
209.43 Мб (219,607,554 байт) » файлов: 6
Участники:
0 раздают, 0 качают (0 участников всего)
Внешние участники:
5 раздают, 1 качают (6 участников всего) [ Обновить ]
No seeders - write a personal message to user M0p94ok. Нет сидеров - пишите личное сообщение пользователю M0p94ok.
05:17
58
Нет комментариев. Ваш будет первым!