Поиск

(hardcore free-jazz / dub / Tzadik) John Zorn / Bill Laswell / Mick Harris - PainKiller - Talisman - Live In Nagoya 1994 - 2002, FLAC (image+.cue), lossless

(hardcore free-jazz / dub / Tzadik) John Zorn / Bill Laswell / Mick Harris - PainKiller - Talisman - Live In Nagoya 1994 - 2002, FLAC (image+.cue), lossless
Треклист:
John Zorn / Bill Laswell / Mick Harris - PainKiller - Talisman - Live In Nagoya 1994
Жанр: hardcore free-jazz / dub / Tzadik
Год выпуска диска: 2002
Производитель диска: USA (Tzadik)
Аудио кодек: FLAC
Тип рипа: image+.cue
Битрейт аудио: lossless
Продолжительность: 48.07
Трэклист:
01 Batrachophrenoboocosmomachia 31:58
02 Transport Of Sorcerers 6:11
03 Ahamkara 10:01
Доп. информация: Recorded November 21, 1994 in Nagoya, Japan
Recorded by Oz Fritz
Produced by PainKiller
Mastered by Scott Hull at Classic Sound, New York City
John Zorn: alto sax, vocals
Bill Laswell: bass
Mick Harris: drums, vocals
 
eac log
Exact Audio Copy V0.99 prebeta 4 from 23. January 2008
Отчёт EAC об извлечении, выполненном 26. октября 2008, 18:09
Painkiller / Talisman: Live in Nagoya
Дисковод: Optiarc DVD RW AD-7170A Adapter: 0 ID: 1
Режим чтения : Достоверность
Использование точного потока : Да
Отключение кэша аудио : Да
Использование указателей C2 : Нет
Коррекция смещения при чтении : 48
Способность читать области Lead-in и Lead-out : Нет
Заполнение пропущенных сэмплов тишиной : Да
Удаление блоков с тишиной в начале и конце : Нет
При вычислениях CRC использовались нулевые сэмплы : Да
Интерфейс : Встроенный Win32-интерфейс для Win NT/2000
Выходной формат : Пользовательский кодировщик
Выбранный битрейт : 768 kBit/s
Качество : Высокий
Добавление ID3-тэга : Нет
Утилита сжатия : D:\Program Files\Exact Audio Copy\FLAC\FLAC.EXE
Дополнительные параметры : -6 -V -T "ARTIST=%a" -T "TITLE=%t" -T "ALBUM=%g" -T "DATE=%y" -T "TRACKNUMBER=%n" -T "GENRE=%m" -T "COMMENT=%e" %s -o %d
TOC извлечённого CD
Трек | Старт | Длительность | Начальный сектор | Конечный сектор
---------------------------------------------------------------------
1 | 0:00.00 | 31:55.66 | 0 | 143690
2 | 31:55.66 | 6:10.62 | 143691 | 171502
3 | 38:06.53 | 10:00.44 | 171503 | 216546
Характеристики диапазона извлечения и сообщения об ошибках
Выбранный диапазон
Имя файла D:\EAC\Painkiller - Talisman Live in Nagoya.wav
Пиковый уровень 99.2 %
Качество диапазона 99.9 %
CRC копии ED6A098E
Копирование... OK
Ошибок не произошло
AccurateRip: сводка
Трек 1 точность не определена (достоверность 1) [9FAF37AE], AccurateRip вернул [95733545]
Трек 2 точность не определена (достоверность 1) [AA11B7FB], AccurateRip вернул [1E24EE55]
Трек 3 точность не определена (достоверность 1) [925566C0], AccurateRip вернул [B7E02274]
Ни один трек не прошёл проверки на точность
В вашей базе может быть иной вариант штамповки диска
Конец отчёта
Приватный:
Нет (DHT включён)
Размер:
322.29 Мб (337,947,289 байт) » файлов: 3
Участники:
0 раздают, 0 качают (0 участников всего)
Внешние участники:
3 раздают, 1 качают (4 участников всего) [ Обновить ]
No seeders - write a personal message to user M0p94ok. Нет сидеров - пишите личное сообщение пользователю M0p94ok.
04:25
72
Нет комментариев. Ваш будет первым!