Поиск

(Hard Bop/Jazz-Pop/Contemporary Jazz/Crossover Jazz/Smooth Jazz/Fusion/Guitar Jazz) [CD] George Benson - Collection (w. Al Jarreau, Earl Klugh, Jack McDuff) - 41 albums (43 CD) - 1964-2013, FLAC (image+.cue), lossless

(Hard Bop/Jazz-Pop/Contemporary Jazz/Crossover Jazz/Smooth Jazz/Fusion/Guitar Jazz) [CD] George Benson - Collection (w. Al Jarreau, Earl Klugh, Jack McDuff) - 41 albums (43 CD) - 1964-2013, FLAC (image+.cue), lossless
Битрейт аудио:
lossless
Треклист:
George Benson - Collection
Жанр: Hard Bop/Jazz-Pop/Contemporary Jazz/
Crossover Jazz/Smooth Jazz/Fusion/Guitar Jazz
Носитель: CD
Страна исполнителя (группы): USA
Аудиокодек: FLAC (*.flac)
Тип рипа: image+.cue
Битрейт аудио: lossless
Продолжительность: 35:01:15
Источник (релизер): свои рипы
Наличие сканов в содержимом раздачи: да
 
1964 - The New Boss Guitar of George Benson
Страна-производитель диска: Germany
Издатель (лейбл): Prestige / Universal
Номер по каталогу: 00025218646123
Продолжительность: 40:19
Треклист:
01. Shadow Dancers [4:49]
02. The Sweet Alice Blues [4:42]
03. I Don't Know [6:52]
04. Just Another Sunday [3:05]
05. Will You Still Be Mine [4:31]
06. Easy Living [6:41]
07. Rock-A-Bye [4:02]
08. My Three Sons [5:37]
 
Лог создания рипа
X Lossless Decoder version 20170729 (150.3)
XLD extraction logfile from 2018-09-18 21:47:39 +0500
George Benson / The New Boss Guitar of George Benson
Used drive : HL-DT-ST DVDRAM GP60NS60 (revision PE00)
Media type : Pressed CD
Ripper mode : XLD Secure Ripper
Disable audio cache : OK for the drive with a cache less than 1375KiB
Make use of C2 pointers : NO
Read offset correction : 6
Max retry count : 20
Gap status : Analyzed, Appended
TOC of the extracted CD
Track | Start | Length | Start sector | End sector
---------------------------------------------------------
1 | 00:00:00 | 04:49:12 | 0 | 21686
2 | 04:49:12 | 04:42:23 | 21687 | 42859
3 | 09:31:35 | 06:52:25 | 42860 | 73784
4 | 16:23:60 | 03:05:27 | 73785 | 87686
5 | 19:29:12 | 04:30:38 | 87687 | 107974
6 | 23:59:50 | 06:41:00 | 107975 | 138049
7 | 30:40:50 | 04:02:00 | 138050 | 156199
8 | 34:42:50 | 05:37:12 | 156200 | 181486
List of alternate offset correction values
# | Absolute | Relative | Confidence
------------------------------------------
1 | 1109 | 1103 | 8
2 | 1334 | 1328 | 2
3 | 264 | 258 | 2
4 | 350 | 344 | 2
5 | 1009 | 1003 | 2
AccurateRip Summary (DiscID: 000c5b03-00527059-64097308)
Track 01 : OK (v1+v2, confidence 11/28)
Track 02 : OK (v1+v2, confidence 11/30)
Track 03 : OK (v1+v2, confidence 11/30)
Track 04 : OK (v1+v2, confidence 11/30)
Track 05 : OK (v1+v2, confidence 11/30)
Track 06 : OK (v1+v2, confidence 11/30)
Track 07 : OK (v1+v2, confidence 11/29)
Track 08 : OK (v1+v2, confidence 11/30)
->All tracks accurately ripped.
All Tracks
Filename : /Users/mihail/Music/CDs/George Benson - The New Boss Guitar of George Benson.flac
Album gain : -0.11 dB
Peak : 0.887482
CRC32 hash (test run) : 5B7CCFE4
CRC32 hash : 5B7CCFE4
CRC32 hash (skip zero) : E558B456
Statistics
Read error : 0
Jitter error (maybe fixed) : 0
Retry sector count : 0
Damaged sector count : 0
Track 01
Pre-gap length : 00:02:00
Track gain : 0.15 dB
Peak : 0.673431
CRC32 hash (test run) : 23B2DC5B
CRC32 hash : 23B2DC5B
CRC32 hash (skip zero) : 5157DF73
AccurateRip v1 signature : 4945F9FC
AccurateRip v2 signature : 2FF13C80
->Accurately ripped (v1+v2, confidence 5+6/28)
Statistics
Read error : 0
Jitter error (maybe fixed) : 0
Retry sector count : 0
Damaged sector count : 0
Track 02
Pre-gap length : 00:04:35
Track gain : -0.15 dB
Peak : 0.758728
CRC32 hash (test run) : 613CCD1D
CRC32 hash : 613CCD1D
CRC32 hash (skip zero) : 5CE75ECC
AccurateRip v1 signature : AADF7867
AccurateRip v2 signature : 565A2764
->Accurately ripped (v1+v2, confidence 5+6/30)
Statistics
Read error : 0
Jitter error (maybe fixed) : 0
Retry sector count : 0
Damaged sector count : 0
Track 03
Pre-gap length : 00:05:10
Track gain : -1.17 dB
Peak : 0.887482
CRC32 hash (test run) : A523A087
CRC32 hash : A523A087
CRC32 hash (skip zero) : 454474D8
AccurateRip v1 signature : 0DD2291C
AccurateRip v2 signature : 27393F9F
->Accurately ripped (v1+v2, confidence 5+6/30)
Statistics
Read error : 0
Jitter error (maybe fixed) : 0
Retry sector count : 0
Damaged sector count : 0
Track 04
Pre-gap length : 00:03:40
Track gain : -1.07 dB
Peak : 0.797394
CRC32 hash (test run) : BC4EC8F4
CRC32 hash : BC4EC8F4
CRC32 hash (skip zero) : 6B8B1E04
AccurateRip v1 signature : A64E5612
AccurateRip v2 signature : B7D027D1
->Accurately ripped (v1+v2, confidence 5+6/30)
Statistics
Read error : 0
Jitter error (maybe fixed) : 0
Retry sector count : 0
Damaged sector count : 0
Track 05
Pre-gap length : 00:04:30
Track gain : 0.71 dB
Peak : 0.607483
CRC32 hash (test run) : D9506034
CRC32 hash : D9506034
CRC32 hash (skip zero) : 9CB424F0
AccurateRip v1 signature : D2B109C3
AccurateRip v2 signature : 0A62DA61
->Accurately ripped (v1+v2, confidence 5+6/30)
Statistics
Read error : 0
Jitter error (maybe fixed) : 0
Retry sector count : 0
Damaged sector count : 0
Track 06
Pre-gap length : 00:03:48
Track gain : 3.75 dB
Peak : 0.686493
CRC32 hash (test run) : 7BC26C2E
CRC32 hash : 7BC26C2E
CRC32 hash (skip zero) : A8C79388
AccurateRip v1 signature : 451FAFD9
AccurateRip v2 signature : 6919095E
->Accurately ripped (v1+v2, confidence 5+6/30)
Statistics
Read error : 0
Jitter error (maybe fixed) : 0
Retry sector count : 0
Damaged sector count : 0
Track 07
Pre-gap length : 00:04:20
Track gain : -0.37 dB
Peak : 0.743622
CRC32 hash (test run) : AE71B2AD
CRC32 hash : AE71B2AD
CRC32 hash (skip zero) : 6425A9CD
AccurateRip v1 signature : 759B56CA
AccurateRip v2 signature : BD8E4611
->Accurately ripped (v1+v2, confidence 5+6/29)
Statistics
Read error : 0
Jitter error (maybe fixed) : 0
Retry sector count : 0
Damaged sector count : 0
Track 08
Pre-gap length : 00:04:38
Track gain : -0.20 dB
Peak : 0.748138
CRC32 hash (test run) : BEA4B666
CRC32 hash : BEA4B666
CRC32 hash (skip zero) : 57B3EC93
AccurateRip v1 signature : 9972C417
AccurateRip v2 signature : 9CC95B1F
->Accurately ripped (v1+v2, confidence 5+6/30)
Statistics
Read error : 0
Jitter error (maybe fixed) : 0
Retry sector count : 0
Damaged sector count : 0
No errors occurred
End of status report
-----BEGIN XLD SIGNATURE-----
BQ5zboq1iJrv7Cu.WTX17594VUa1B5sscU9XYuNQbRptbuvvaInnRA3FPZ1Anj7Jb6Uqpl8bbrNmJQ7PATN5XMtc8Rw8N_NZriKkhK4
-----END XLD SIGNATURE-----
 
Matrix
 
1966 - The George Benson Quartet - It's Uptown
Страна-производитель диска: Austria
Издатель (лейбл): Columbia / Legacy
Номер по каталогу: COL 502469 2
Продолжительность: 1:01:24.89
Треклист:
01. Clockwise [0:04:29.53]
02. Summertime [0:02:25.22]
03. Ain't That Peculiar [0:02:57.60]
04. Jaguar [0:03:00.17]
05. Willow Weep For Me [0:07:49.80]
06. A Foggy Day [0:02:41.69]
07. Hello Birdie [0:04:01.06]
08. Bullfight [0:03:46.97]
09. Stormy Weather [0:02:20.09]
10. Eternally [0:04:06.40]
11. Myna Bird Blues [0:04:37.64]
12. J. H. Bossa Nova [0:03:11.56]
13. Clockwise (alternate take) [0:04:58.90]
14. Eternally (short version) [0:02:45.86]
15. Sideman [0:04:48.29]
16. Minor Chant [0:03:24.06]
 
Лог создания рипа
Exact Audio Copy V1.0 beta 3 from 29. August 2011
Отчёт EAC об извлечении, выполненном 6. апреля 2012, 15:24
George Benson / It's Uptown
Дисковод: SONY CD-RW CRX230ED Adapter: 0 ID: 1
Режим чтения : Достоверность
Использование точного потока : Да
Отключение кэша аудио : Да
Использование указателей C2 : Нет
Коррекция смещения при чтении : 6
Способность читать области Lead-in и Lead-out : Нет
Заполнение пропущенных сэмплов тишиной : Да
Удаление блоков с тишиной в начале и конце : Нет
При вычислениях CRC использовались нулевые сэмплы : Да
Интерфейс : Встроенный Win32-интерфейс для Win NT/2000
Выходной формат : Внутренние WAV-операции
Формат сэмплов : 44.100 Гц; 16 бит; стерео
TOC извлечённого CD
Трек | Старт | Длительность | Начальный сектор | Конечный сектор
---------------------------------------------------------------------
1 | 0:00.00 | 4:29.40 | 0 | 20214
2 | 4:29.40 | 2:25.17 | 20215 | 31106
3 | 6:54.57 | 2:57.45 | 31107 | 44426
4 | 9:52.27 | 3:00.13 | 44427 | 57939
5 | 12:52.40 | 7:49.60 | 57940 | 93174
6 | 20:42.25 | 2:41.52 | 93175 | 105301
7 | 23:24.02 | 4:01.05 | 105302 | 123381
8 | 27:25.07 | 3:46.73 | 123382 | 140404
9 | 31:12.05 | 2:20.07 | 140405 | 150911
10 | 33:32.12 | 4:06.30 | 150912 | 169391
11 | 37:38.42 | 4:37.48 | 169392 | 190214
12 | 42:16.15 | 3:11.42 | 190215 | 204581
13 | 45:27.57 | 4:58.68 | 204582 | 226999
14 | 50:26.50 | 2:45.65 | 227000 | 239439
15 | 53:12.40 | 4:48.22 | 239440 | 261061
16 | 58:00.62 | 3:24.05 | 261062 | 276366
Характеристики диапазона извлечения и сообщения об ошибках
Выбранный диапазон
Имя файла E:\MusicCD\Torrent\George Benson - It's Uptown\George Benson - It's Uptown.wav
Пиковый уровень 100.0 %
Скорость извлечения 6.9 X
Качество диапазона 99.9 %
CRC теста 1BFA2ADD
CRC копии 1BFA2ADD
Копирование... OK
Ошибок не произошло
AccurateRip: сводка
Трек 1 : извлечено точно (доверие 11) [EE0EFE58] (AR v1)
Трек 2 : извлечено точно (доверие 11) [88FF1D34] (AR v1)
Трек 3 : извлечено точно (доверие 11) [7657D6B4] (AR v1)
Трек 4 : извлечено точно (доверие 11) [865A09CC] (AR v1)
Трек 5 : извлечено точно (доверие 11) [11CF2F46] (AR v1)
Трек 6 : извлечено точно (доверие 11) [197710C5] (AR v1)
Трек 7 : извлечено точно (доверие 11) [B52C5E7C] (AR v1)
Трек 8 : извлечено точно (доверие 11) [BA2CD058] (AR v1)
Трек 9 : извлечено точно (доверие 11) [568C7964] (AR v1)
Трек 10 : извлечено точно (доверие 11) [112C68AC] (AR v1)
Трек 11 : извлечено точно (доверие 11) [6DAFA541] (AR v1)
Трек 12 : извлечено точно (доверие 11) [14D0C36C] (AR v1)
Трек 13 : извлечено точно (доверие 9) [F3816798] (AR v1)
Трек 14 : извлечено точно (доверие 9) [25C0C6B6] (AR v1)
Трек 15 : извлечено точно (доверие 9) [DA99B52B] (AR v1)
Трек 16 : извлечено точно (доверие 10) [8E9084A7] (AR v1)
Все треки извлечены точно
Конец отчёта
==== Контрольная сумма отчёта BC26C2E80C9895D94E361FEDCAFA168F25C2B1D60F855708969B376C01BBC12B ====
 
Matrix
 
1967 - The George Benson Quartet - The George Benson Cookbook
Страна-производитель диска: Austria
Издатель (лейбл): Columbia / Legacy
Номер по каталогу: COL 502470 2
Продолжительность: 52:09.69
Треклист:
01. The Cooker [0:04:19.20]
02. Benny's Back [0:04:12.60]
03. Bossa Rocka [0:04:25.42]
04. All Of Me [0:02:10.24]
05. Big Fat Lady [0:04:44.89]
06. Benson's Rider [0:05:37.84]
07. Ready And Able [0:03:34.09]
08. The Borgia Stick [0:03:09.90]
09. Return Of The Prodigal Son [0:02:38.29]
10. Jumpin' With Symphony Sid [0:06:36.80]
11. The Man From Toledo [0:02:10.70]
12. Slow Scene [0:03:14.00]
13. Let Them Talk [0:02:54.13]
14. Goodnight [0:02:21.56]
 
Лог создания рипа
Exact Audio Copy V1.0 beta 3 from 29. August 2011
Отчёт EAC об извлечении, выполненном 6. апреля 2012, 19:43
George Benson / The George Benson Cookbook
Дисковод: SONY CD-RW CRX230ED Adapter: 0 ID: 1
Режим чтения : Достоверность
Использование точного потока : Да
Отключение кэша аудио : Да
Использование указателей C2 : Нет
Коррекция смещения при чтении : 6
Способность читать области Lead-in и Lead-out : Нет
Заполнение пропущенных сэмплов тишиной : Да
Удаление блоков с тишиной в начале и конце : Нет
При вычислениях CRC использовались нулевые сэмплы : Да
Интерфейс : Встроенный Win32-интерфейс для Win NT/2000
Выходной формат : Внутренние WAV-операции
Формат сэмплов : 44.100 Гц; 16 бит; стерео
TOC извлечённого CD
Трек | Старт | Длительность | Начальный сектор | Конечный сектор
---------------------------------------------------------------------
1 | 0:00.00 | 4:19.15 | 0 | 19439
2 | 4:19.15 | 4:12.45 | 19440 | 38384
3 | 8:31.60 | 4:25.32 | 38385 | 58291
4 | 12:57.17 | 2:10.18 | 58292 | 68059
5 | 15:07.35 | 4:44.67 | 68060 | 89426
6 | 19:52.27 | 5:37.63 | 89427 | 114764
7 | 25:30.15 | 3:34.07 | 114765 | 130821
8 | 29:04.22 | 3:09.68 | 130822 | 145064
9 | 32:14.15 | 2:38.22 | 145065 | 156936
10 | 34:52.37 | 6:36.60 | 156937 | 186696
11 | 41:29.22 | 2:10.53 | 186697 | 196499
12 | 43:40.00 | 3:14.00 | 196500 | 211049
13 | 46:54.00 | 2:54.10 | 211050 | 224109
14 | 49:48.10 | 2:21.42 | 224110 | 234726
Характеристики диапазона извлечения и сообщения об ошибках
Выбранный диапазон
Имя файла E:\MusicCD\Torrent\George Benson - The George Benson Cookbook\George Benson - The George Benson Cookbook.wav
Пиковый уровень 100.0 %
Скорость извлечения 7.6 X
Качество диапазона 100.0 %
CRC теста 0BEEC04C
CRC копии 0BEEC04C
Копирование... OK
Ошибок не произошло
AccurateRip: сводка
Трек 1 точность не определена (достоверность 3) [08882782], AccurateRip вернул [F66EBD76] (AR v2)
Трек 2 точность не определена (достоверность 3) [611D0FE4], AccurateRip вернул [E809C12A] (AR v2)
Трек 3 точность не определена (достоверность 3) [418B3A36], AccurateRip вернул [1AC8EEFB] (AR v2)
Трек 4 точность не определена (достоверность 3) [2248BA4C], AccurateRip вернул [96E3746F] (AR v2)
Трек 5 точность не определена (достоверность 3) [0D80A55F], AccurateRip вернул [093B5C73] (AR v2)
Трек 6 точность не определена (достоверность 3) [27D9679C], AccurateRip вернул [E77BD424] (AR v2)
Трек 7 точность не определена (достоверность 3) [251E8FFB], AccurateRip вернул [8BD6473A] (AR v2)
Трек 8 точность не определена (достоверность 3) [4BF6AEF7], AccurateRip вернул [936A4C0E] (AR v2)
Трек 9 точность не определена (достоверность 3) [49AC3F5A], AccurateRip вернул [9904CF36] (AR v2)
Трек 10 точность не определена (достоверность 3) [4F883431], AccurateRip вернул [57CA5E00] (AR v2)
Трек 11 точность не определена (достоверность 3) [D283D28B], AccurateRip вернул [7CE23A96] (AR v2)
Трек 12 точность не определена (достоверность 3) [3DBF307C], AccurateRip вернул [C84ADFCD] (AR v2)
Трек 13 точность не определена (достоверность 3) [6FC5CCDE], AccurateRip вернул [153B1288] (AR v2)
Трек 14 точность не определена (достоверность 3) [5D20C6BB], AccurateRip вернул [E952ED25] (AR v2)
Ни один трек не прошёл проверки на точность
В вашей базе может быть иной вариант штамповки диска
Конец отчёта
==== Контрольная сумма отчёта 950B1CC9EDF0691F18C7BED9FD9266CA01557DAAE79AF8B007EAF32976AECB2D ====
 
Matrix
 
1968 - Giblet Gravy
Страна-производитель диска: Germany
Издатель (лейбл): Verve / Universal
Номер по каталогу: 543 754-2
Продолжительность: 56:31.09
Треклист:
01. Along Comes Mary [0:03:02.40]
02. Sunny [0:02:56.36]
03. What's New? [0:05:32.73]
04. Giblet Gravy [0:04:50.40]
05. Walk On By [0:03:26.64]
06. Thunder Walk [0:04:42.40]
07. Sack Of Woe [0:03:08.93]
08. Groovin' [0:02:46.56]
09. Low Down and Dirty [0:08:40.90]
10. Billie's Bounce [0:06:14.46]
11. What's New? - alternative take 1 [0:05:41.26]
12. What's New? - alternative take 2 [0:05:28.02]
 
Лог создания рипа
Exact Audio Copy V1.0 beta 3 from 29. August 2011
Отчёт EAC об извлечении, выполненном 6. апреля 2012, 22:17
George Benson / Giblet Gravy
Дисковод: SONY CD-RW CRX230ED Adapter: 0 ID: 1
Режим чтения : Достоверность
Использование точного потока : Да
Отключение кэша аудио : Да
Использование указателей C2 : Нет
Коррекция смещения при чтении : 6
Способность читать области Lead-in и Lead-out : Нет
Заполнение пропущенных сэмплов тишиной : Да
Удаление блоков с тишиной в начале и конце : Нет
При вычислениях CRC использовались нулевые сэмплы : Да
Интерфейс : Встроенный Win32-интерфейс для Win NT/2000
Выходной формат : Внутренние WAV-операции
Формат сэмплов : 44.100 Гц; 16 бит; стерео
TOC извлечённого CD
Трек | Старт | Длительность | Начальный сектор | Конечный сектор
---------------------------------------------------------------------
1 | 0:00.00 | 3:02.30 | 0 | 13679
2 | 3:02.30 | 2:56.27 | 13680 | 26906
3 | 5:58.57 | 5:32.55 | 26907 | 51861
4 | 11:31.37 | 4:50.30 | 51862 | 73641
5 | 16:21.67 | 3:26.48 | 73642 | 89139
6 | 19:48.40 | 4:42.30 | 89140 | 110319
7 | 24:30.70 | 3:08.70 | 110320 | 124489
8 | 27:39.65 | 2:46.42 | 124490 | 136981
9 | 30:26.32 | 8:40.68 | 136982 | 176049
10 | 39:07.25 | 6:14.35 | 176050 | 204134
11 | 45:21.60 | 5:41.20 | 204135 | 229729
12 | 51:03.05 | 5:28.02 | 229730 | 254331
Характеристики диапазона извлечения и сообщения об ошибках
Выбранный диапазон
Имя файла E:\MusicCD\Torrent\George Benson - Giblet Gravy\George Benson - Giblet Gravy.wav
Пиковый уровень 100.0 %
Скорость извлечения 8.0 X
Качество диапазона 100.0 %
CRC теста AD3C1DF5
CRC копии AD3C1DF5
Копирование... OK
Ошибок не произошло
AccurateRip: сводка
Трек 1 : извлечено точно (доверие 2) [1BC8906E] (AR v2)
Трек 2 : извлечено точно (доверие 2) [E6F052D9] (AR v2)
Трек 3 : извлечено точно (доверие 2) [92F5647C] (AR v2)
Трек 4 : извлечено точно (доверие 2) [3E9431CC] (AR v2)
Трек 5 : извлечено точно (доверие 2) [C4210B13] (AR v2)
Трек 6 : извлечено точно (доверие 2) [56C4B23D] (AR v2)
Трек 7 : извлечено точно (доверие 2) [13C33073] (AR v2)
Трек 8 : извлечено точно (доверие 2) [04AF9B65] (AR v2)
Трек 9 : извлечено точно (доверие 2) [5A8845D0] (AR v2)
Трек 10 : извлечено точно (доверие 2) [01E7ED55] (AR v2)
Трек 11 : извлечено точно (доверие 2) [983B2261] (AR v2)
Трек 12 : извлечено точно (доверие 2) [78B0E299] (AR v2)
Все треки извлечены точно
Конец отчёта
==== Контрольная сумма отчёта 7AFEC785B21B2B1C2DF713E72BEAAC19B7231A5A89C056BB26F88DC7823B8B71 ====
 
Matrix
 
1968 - Shape Of Things To Come
Страна-производитель диска: Germany
Издатель (лейбл): A&M Records
Номер по каталогу: 396 995-2
Продолжительность: 33:34.53
Треклист:
01. Footin' It [0:04:26.60]
02. Face It Boy, It's Over [0:04:08.30]
03. Shape Of Things To Come [0:05:17.42]
04. Chatanooga Choo Choo [0:03:36.37]
05. Don't Let Me Lose This Dream [0:04:43.62]
06. Shape Of Things That Are and Were [0:05:48.24]
07. Last Train To Clarksville [0:05:33.96]
 
Лог создания рипа
Exact Audio Copy V1.0 beta 3 from 29. August 2011
Отчёт EAC об извлечении, выполненном 3. апреля 2012, 21:20
George Benson / Shape Of Things To Come
Дисковод: SONY CD-RW CRX230ED Adapter: 0 ID: 1
Режим чтения : Достоверность
Использование точного потока : Да
Отключение кэша аудио : Да
Использование указателей C2 : Нет
Коррекция смещения при чтении : 6
Способность читать области Lead-in и Lead-out : Нет
Заполнение пропущенных сэмплов тишиной : Да
Удаление блоков с тишиной в начале и конце : Нет
При вычислениях CRC использовались нулевые сэмплы : Да
Интерфейс : Установленный внешний ASPI-интерфейс
Выходной формат : Внутренние WAV-операции
Формат сэмплов : 44.100 Гц; 16 бит; стерео
TOC извлечённого CD
Трек | Старт | Длительность | Начальный сектор | Конечный сектор
---------------------------------------------------------------------
1 | 0:00.32 | 4:26.45 | 32 | 20026
2 | 4:27.02 | 4:08.23 | 20027 | 38649
3 | 8:35.25 | 5:17.32 | 38650 | 62456
4 | 13:52.57 | 3:36.28 | 62457 | 78684
5 | 17:29.10 | 4:43.47 | 78685 | 99956
6 | 22:12.57 | 5:48.18 | 99957 | 126074
7 | 28:01.00 | 5:33.72 | 126075 | 151121
Характеристики диапазона извлечения и сообщения об ошибках
Выбранный диапазон
Имя файла E:\MusicCD\Torrent\George Benson - Shape Of Things To Come\George Benson - Shape Of Things To Come.wav
Пиковый уровень 96.0 %
Скорость извлечения 5.3 X
Качество диапазона 100.0 %
CRC теста 1490700A
CRC копии 1490700A
Копирование... OK
Ошибок не произошло
AccurateRip: сводка
Трек 1 : извлечено точно (доверие 2) [F1D3F3C4] (AR v2)
Трек 2 : извлечено точно (доверие 2) [6E19A4B3] (AR v2)
Трек 3 : извлечено точно (доверие 2) [A578DE6C] (AR v2)
Трек 4 : извлечено точно (доверие 2) [0C7FE50A] (AR v2)
Трек 5 : извлечено точно (доверие 2) [0D0B1294] (AR v2)
Трек 6 : извлечено точно (доверие 2) [52010F6B] (AR v2)
Трек 7 : извлечено точно (доверие 2) [ADEAE583] (AR v2)
Все треки извлечены точно
Конец отчёта
==== Контрольная сумма отчёта D2CEB18B6C178616D82DCAD06E28E0C15272BC965E936DC7E1CE5A7ECEC67606 ====
 
Matrix
 
1968 - Goodies
Страна-производитель диска: Japan
Издатель (лейбл): Verve
Номер по каталогу: UCCV-9614
Продолжительность: 39:04
Треклист:
01. I Remember Wes [3:58]
02. Carnival Joys [3:57]
03. You Make Me Feel Like A Natural Woman [4:36]
04. That Lucky Old Sun [3:44]
05. Julie [3:18]
06. Windmills Of Your Mind [5:16]
07. Doobie, Doobie Blues [5:12]
08. Song For My Father [4:50]
09. People Get Ready [4:15]
 
Лог создания рипа
X Lossless Decoder version 20181019 (151.1)
XLD extraction logfile from 2018-11-22 15:21:27 +0500
George Benson / Goodies
Used drive : HL-DT-ST DVDRAM GP60NS60 (revision PE00)
Media type : Pressed CD
Ripper mode : XLD Secure Ripper
Disable audio cache : OK for the drive with a cache less than 1375KiB
Make use of C2 pointers : NO
Read offset correction : 6
Max retry count : 20
Gap status : Analyzed, Appended
TOC of the extracted CD
Track | Start | Length | Start sector | End sector
---------------------------------------------------------
1 | 00:00:00 | 03:57:41 | 0 | 17815
2 | 03:57:41 | 03:56:70 | 17816 | 35585
3 | 07:54:36 | 04:36:33 | 35586 | 56318
4 | 12:30:69 | 03:43:70 | 56319 | 73113
5 | 16:14:64 | 03:17:52 | 73114 | 87940
6 | 19:32:41 | 05:15:62 | 87941 | 111627
7 | 24:48:28 | 05:11:54 | 111628 | 135006
8 | 30:00:07 | 04:49:53 | 135007 | 156734
9 | 34:49:60 | 04:14:40 | 156735 | 175824
AccurateRip Summary (DiscID: 000cf833-005fff00-77092809)
Track 01 : OK (v2, confidence 1/1)
Track 02 : OK (v2, confidence 1/1)
Track 03 : OK (v2, confidence 1/1)
Track 04 : OK (v2, confidence 1/1)
Track 05 : OK (v2, confidence 1/1)
Track 06 : OK (v2, confidence 1/1)
Track 07 : OK (v2, confidence 1/1)
Track 08 : OK (v2, confidence 1/1)
Track 09 : OK (v2, confidence 1/1)
->All tracks accurately ripped.
All Tracks
Filename : /Users/mihail/Music/CDs/George Benson - Goodies.flac
Album gain : -7.01 dB
Peak : 0.999969
CRC32 hash (test run) : 5C9579BF
CRC32 hash : 5C9579BF
CRC32 hash (skip zero) : 442E3052
Statistics
Read error : 0
Jitter error (maybe fixed) : 0
Retry sector count : 0
Damaged sector count : 0
Track 01
Pre-gap length : 00:02:00
Track gain : -4.55 dB
Peak : 0.996552
CRC32 hash (test run) : CB641745
CRC32 hash : CB641745
CRC32 hash (skip zero) : F240462C
AccurateRip v1 signature : 6A3C6FFF
AccurateRip v2 signature : F1156FBF
->Accurately ripped (v2, confidence 1/1)
Statistics
Read error : 0
Jitter error (maybe fixed) : 0
Retry sector count : 0
Damaged sector count : 0
Track 02
Pre-gap length : 00:02:62
Track gain : -7.23 dB
Peak : 0.999969
CRC32 hash (test run) : A56DE91A
CRC32 hash : A56DE91A
CRC32 hash (skip zero) : 142E9C7B
AccurateRip v1 signature : F807E3E4
AccurateRip v2 signature : B2B17F21
->Accurately ripped (v2, confidence 1/1)
Statistics
Read error : 0
Jitter error (maybe fixed) : 0
Retry sector count : 0
Damaged sector count : 0
Track 03
Pre-gap length : 00:02:37
Track gain : -6.38 dB
Peak : 0.999969
CRC32 hash (test run) : E6E1B64C
CRC32 hash : E6E1B64C
CRC32 hash (skip zero) : D726160B
AccurateRip v1 signature : C1695F35
AccurateRip v2 signature : A580C919
->Accurately ripped (v2, confidence 1/1)
Statistics
Read error : 0
Jitter error (maybe fixed) : 0
Retry sector count : 0
Damaged sector count : 0
Track 04
Pre-gap length : 00:02:13
Track gain : -9.07 dB
Peak : 0.999969
CRC32 hash (test run) : 44CDB576
CRC32 hash : 44CDB576
CRC32 hash (skip zero) : 9B0377BE
AccurateRip v1 signature : 535CBED6
AccurateRip v2 signature : 860BC3ED
->Accurately ripped (v2, confidence 1/1)
Statistics
Read error : 0
Jitter error (maybe fixed) : 0
Retry sector count : 0
Damaged sector count : 0
Track 05
Pre-gap length : 00:02:54
Track gain : -4.52 dB
Peak : 0.998047
CRC32 hash (test run) : 93C09D84
CRC32 hash : 93C09D84
CRC32 hash (skip zero) : 8C972377
AccurateRip v1 signature : 602B4797
AccurateRip v2 signature : FE4A6AD5
->Accurately ripped (v2, confidence 1/1)
Statistics
Read error : 0
Jitter error (maybe fixed) : 0
Retry sector count : 0
Damaged sector count : 0
Track 06
Pre-gap length : 00:02:61
Track gain : -8.41 dB
Peak : 0.999969
CRC32 hash (test run) : 44265BE4
CRC32 hash : 44265BE4
CRC32 hash (skip zero) : 787E470F
AccurateRip v1 signature : 4EE3F18F
AccurateRip v2 signature : 08916138
->Accurately ripped (v2, confidence 1/1)
Statistics
Read error : 0
Jitter error (maybe fixed) : 0
Retry sector count : 0
Damaged sector count : 0
Track 07
Pre-gap length : 00:02:50
Track gain : -7.16 dB
Peak : 0.999969
CRC32 hash (test run) : 1DC393CC
CRC32 hash : 1DC393CC
CRC32 hash (skip zero) : D3D71FB5
AccurateRip v1 signature : B30DCE8C
AccurateRip v2 signature : 273AFE2B
->Accurately ripped (v2, confidence 1/1)
Statistics
Read error : 0
Jitter error (maybe fixed) : 0
Retry sector count : 0
Damaged sector count : 0
Track 08
Pre-gap length : 00:01:42
Track gain : -6.32 dB
Peak : 0.999969
CRC32 hash (test run) : A38D8117
CRC32 hash : A38D8117
CRC32 hash (skip zero) : 9D981DC6
AccurateRip v1 signature : 16E12FD4
AccurateRip v2 signature : 90CF36AB
->Accurately ripped (v2, confidence 1/1)
Statistics
Read error : 0
Jitter error (maybe fixed) : 0
Retry sector count : 0
Damaged sector count : 0
Track 09
Pre-gap length : 00:02:54
Track gain : -6.43 dB
Peak : 0.999969
CRC32 hash (test run) : CAC68FA9
CRC32 hash : CAC68FA9
CRC32 hash (skip zero) : CF49CAA5
AccurateRip v1 signature : E02D3B98
AccurateRip v2 signature : 94112EAC
->Accurately ripped (v2, confidence 1/1)
Statistics
Read error : 0
Jitter error (maybe fixed) : 0
Retry sector count : 0
Damaged sector count : 0
No errors occurred
End of status report
-----BEGIN XLD SIGNATURE-----
fA_NwdHdBN0Qkbsm.sNIAZJO2dhzYfJHeyLKPbHxcVYnQftnDFIqtTdBaGrTLeCfDzSWRXaxyHHqfq_oMxsC8UuldEF937TuwavbrgS
-----END XLD SIGNATURE-----
 
Matrix
 
1969 - Tell It Like It Is
Страна-производитель диска: Germany
Издатель (лейбл): A&M
Номер по каталогу: 393 020-2
Продолжительность: 33:01.24
Треклист:
01. Soul Limbo [0:03:28.13]
02. Are You Happy? [0:02:34.20]
03. Tell It Like It Is [0:02:54.24]
04. Land Of 1000 Dances [0:02:51.02]
05. Jackie, All [0:02:20.26]
06. Dontcha Hear Me Callin' To Ya [0:03:18.80]
07. Water Brother [0:02:11.44]
08. My Woman's Good To Me [0:03:16.53]
09. Jama Joe [0:03:51.62]
10. My Cherie Amour [0:03:33.44]
11. Out In The Cold Again [0:02:41.53]
 
Лог создания рипа
Exact Audio Copy V1.1 from 23. June 2015
Отчёт EAC об извлечении, выполненном 4. марта 2017, 15:45
George Benson / Tell It Like It Is
Дисковод: TEAC CD-W552GB Adapter: 1 ID: 0
Режим чтения : Достоверность
Использование точного потока : Да
Отключение кэша аудио : Да
Использование указателей C2 : Нет
Коррекция смещения при чтении : 6
Способность читать области Lead-in и Lead-out : Нет
Заполнение пропущенных сэмплов тишиной : Да
Удаление блоков с тишиной в начале и конце : Нет
При вычислениях CRC использовались нулевые сэмплы : Да
Интерфейс : Встроенный Win32-интерфейс для Win NT/2000
Выходной формат : Внутренние WAV-операции
Формат сэмплов : 44.100 Гц; 16 бит; стерео
TOC извлечённого CD
Трек | Старт | Длительность | Начальный сектор | Конечный сектор
---------------------------------------------------------------------
1 | 0:00.32 | 3:28.10 | 32 | 15641
2 | 3:28.42 | 2:34.15 | 15642 | 27206
3 | 6:02.57 | 2:54.18 | 27207 | 40274
4 | 8:57.00 | 2:51.02 | 40275 | 53101
5 | 11:48.02 | 2:20.20 | 53102 | 63621
6 | 14:08.22 | 3:18.60 | 63622 | 78531
7 | 17:27.07 | 2:11.33 | 78532 | 88389
8 | 19:38.40 | 3:16.40 | 88390 | 103129
9 | 22:55.05 | 3:51.47 | 103130 | 120501
10 | 26:46.52 | 3:33.33 | 120502 | 136509
11 | 30:20.10 | 2:41.40 | 136510 | 148624
Характеристики диапазона извлечения и сообщения об ошибках
Выбранный диапазон
Имя файла F:\MusicCD\Torrent\George Benson - Tell It Like It Is\George Benson - Tell It Like It Is.wav
Пиковый уровень 95.8 %
Скорость извлечения 7.5 X
Качество диапазона 100.0 %
CRC теста 0E745E5C
CRC копии 0E745E5C
Копирование... OK
Ошибок не произошло
AccurateRip: сводка
Трек 1 : извлечено точно (доверие 2) [55958A93] (AR v2)
Трек 2 : извлечено точно (доверие 2) [0747821E] (AR v2)
Трек 3 : извлечено точно (доверие 2) [FB64E91E] (AR v2)
Трек 4 : извлечено точно (доверие 2) [17BA37F7] (AR v2)
Трек 5 : извлечено точно (доверие 2) [228BB6D2] (AR v2)
Трек 6 : извлечено точно (доверие 2) [B3D2244C] (AR v2)
Трек 7 : извлечено точно (доверие 2) [1152D01D] (AR v2)
Трек 8 : извлечено точно (доверие 2) [4DB1CA54] (AR v2)
Трек 9 : извлечено точно (доверие 2) [10EAB4B7] (AR v2)
Трек 10 : извлечено точно (доверие 2) [664D25FB] (AR v2)
Трек 11 : извлечено точно (доверие 2) [D18D78D9] (AR v2)
Все треки извлечены точно
Конец отчёта
---- CUETools DB Plugin V2.1.6
[CTDB TOCID: uuAm84Y71ypHCAvvkQsqTsdzDQA-] found
Submit result: uuAm84Y71ypHCAvvkQsqTsdzDQA- has been confirmed
Track | CTDB Status
1 | (3/3) Accurately ripped
2 | (3/3) Accurately ripped
3 | (3/3) Accurately ripped
4 | (3/3) Accurately ripped
5 | (3/3) Accurately ripped
6 | (3/3) Accurately ripped
7 | (3/3) Accurately ripped
8 | (3/3) Accurately ripped
9 | (3/3) Accurately ripped
10 | (3/3) Accurately ripped
11 | (3/3) Accurately ripped
==== Контрольная сумма отчёта F30AA7EE5E16D181F92E921F6949B68E6D1F8D9B184B9F8003E294AF8B45C48E ====
 
Matrix
 
1969 - The Other Side of Abbey Road
Страна-производитель диска: USA
Издатель (лейбл): A&M Records
Номер по каталогу: 82839 3028 2
Продолжительность: 31:37.29
Треклист:
01. Golden Slumbers/You Never Give Me Your Money [0:04:47.60]
02. Because/Come Together [0:07:26.06]
03. Oh! Darling [0:04:01.66]
04. Here Comes The Sun/I Want You (She's So Heavy) [0:09:00.46]
05. Something/Octopus's Garden/The End [0:06:21.49]
 
Лог создания рипа
Exact Audio Copy V1.0 beta 3 from 29. August 2011
Отчёт EAC об извлечении, выполненном 5. апреля 2012, 9:40
George Benson / The Other Side Of Abbey Road
Дисковод: SONY CD-RW CRX230ED Adapter: 0 ID: 1
Режим чтения : Достоверность
Использование точного потока : Да
Отключение кэша аудио : Да
Использование указателей C2 : Нет
Коррекция смещения при чтении : 6
Способность читать области Lead-in и Lead-out : Нет
Заполнение пропущенных сэмплов тишиной : Да
Удаление блоков с тишиной в начале и конце : Нет
При вычислениях CRC использовались нулевые сэмплы : Да
Интерфейс : Встроенный Win32-интерфейс для Win NT/2000
Выходной формат : Внутренние WAV-операции
Формат сэмплов : 44.100 Гц; 16 бит; стерео
TOC извлечённого CD
Трек | Старт | Длительность | Начальный сектор | Конечный сектор
---------------------------------------------------------------------
1 | 0:00.00 | 4:47.45 | 0 | 21569
2 | 4:47.45 | 7:26.05 | 21570 | 55024
3 | 12:13.50 | 4:01.50 | 55025 | 73149
4 | 16:15.25 | 9:00.35 | 73150 | 113684
5 | 25:15.60 | 6:21.37 | 113685 | 142296
Характеристики диапазона извлечения и сообщения об ошибках
Выбранный диапазон
Имя файла E:\MusicCD\Torrent\George Benson - The Other Side Of Abbey Road\George Benson - The Other Side Of Abbey Road.wav
Пиковый уровень 100.0 %
Скорость извлечения 6.7 X
Качество диапазона 100.0 %
CRC теста 9FB054DC
CRC копии 9FB054DC
Копирование... OK
Ошибок не произошло
AccurateRip: сводка
Трек 1 : извлечено точно (доверие 4) [9776394D] (AR v1)
Трек 2 : извлечено точно (доверие 4) [4BA0BAAA] (AR v1)
Трек 3 : извлечено точно (доверие 4) [42EB0B63] (AR v1)
Трек 4 : извлечено точно (доверие 4) [D73A7DC8] (AR v1)
Трек 5 : извлечено точно (доверие 4) [D17EF24C] (AR v1)
Все треки извлечены точно
Конец отчёта
==== Контрольная сумма отчёта 1B2D0789BA5E08776F6D168CEECCF645C3EBB5773B3F229503ACE3FADA3FFEAF ====
 
Matrix
 
1971 - Beyond The Blue Horizon
Страна-производитель диска: Austria
Издатель (лейбл): Epic / Legacy
Номер по каталогу: 5060302
Продолжительность: 54:21.62
Треклист:
01. So What [0:09:20.76]
02. The Gentle Rain [0:09:15.30]
03. All Clear [0:05:29.73]
04. Ode To A Kudu [0:03:48.26]
05. Somewhere In The East [0:06:11.62]
06. All Clear (alt. Take) [0:05:47.80]
07. Ode To A Kudu (alt. take) [0:04:41.70]
08. Somewhere In The East (alt. take) [0:09:46.42]
 
Лог создания рипа
Exact Audio Copy V1.1 from 23. June 2015
Отчёт EAC об извлечении, выполненном 4. марта 2017, 15:32
George Benson / Beyond The Blue Horizon
Дисковод: TEAC CD-W552GB Adapter: 1 ID: 0
Режим чтения : Достоверность
Использование точного потока : Да
Отключение кэша аудио : Да
Использование указателей C2 : Нет
Коррекция смещения при чтении : 6
Способность читать области Lead-in и Lead-out : Нет
Заполнение пропущенных сэмплов тишиной : Да
Удаление блоков с тишиной в начале и конце : Нет
При вычислениях CRC использовались нулевые сэмплы : Да
Интерфейс : Встроенный Win32-интерфейс для Win NT/2000
Выходной формат : Внутренние WAV-операции
Формат сэмплов : 44.100 Гц; 16 бит; стерео
TOC извлечённого CD
Трек | Старт | Длительность | Начальный сектор | Конечный сектор
---------------------------------------------------------------------
1 | 0:00.00 | 9:20.57 | 0 | 42056
2 | 9:20.57 | 9:15.23 | 42057 | 83704
3 | 18:36.05 | 5:29.55 | 83705 | 108434
4 | 24:05.60 | 3:48.20 | 108435 | 125554
5 | 27:54.05 | 6:11.47 | 125555 | 153426
6 | 34:05.52 | 5:47.60 | 153427 | 179511
7 | 39:53.37 | 4:41.53 | 179512 | 200639
8 | 44:35.15 | 9:46.32 | 200640 | 244621
Характеристики диапазона извлечения и сообщения об ошибках
Выбранный диапазон
Имя файла F:\MusicCD\Torrent\George Benson - Beyond The Blue Horizon\George Benson - Beyond The Blue Horizon.wav
Пиковый уровень 100.0 %
Скорость извлечения 8.4 X
Качество диапазона 100.0 %
CRC теста 7B19157A
CRC копии 7B19157A
Копирование... OK
Ошибок не произошло
AccurateRip: сводка
Трек 1 : извлечено точно (доверие 32) [6FB48135] (AR v2)
Трек 2 : извлечено точно (доверие 33) [23B8BA63] (AR v2)
Трек 3 : извлечено точно (доверие 33) [EFBD67BB] (AR v2)
Трек 4 : извлечено точно (доверие 33) [60AF725F] (AR v2)
Трек 5 : извлечено точно (доверие 33) [578C56EE] (AR v2)
Трек 6 : извлечено точно (доверие 32) [A6FFAEB7] (AR v2)
Трек 7 : извлечено точно (доверие 32) [94943F66] (AR v2)
Трек 8 : извлечено точно (доверие 33) [A26159D3] (AR v2)
Все треки извлечены точно
Конец отчёта
---- CUETools DB Plugin V2.1.6
[CTDB TOCID: znlwfUspHa1jndXJ.UlYMGcQOBw-] found
Submit result: znlwfUspHa1jndXJ.UlYMGcQOBw- has been confirmed
Track | CTDB Status
1 | (48/50) Accurately ripped
2 | (50/50) Accurately ripped
3 | (50/50) Accurately ripped
4 | (50/50) Accurately ripped
5 | (50/50) Accurately ripped
6 | (50/50) Accurately ripped
7 | (50/50) Accurately ripped
8 | (49/50) Accurately ripped
==== Контрольная сумма отчёта EFC26DE40D7192FEE40A51A5B1E960A9465DD79384A870F390D147FAEC0BBBC5 ====
 
Matrix
 
1971 - White Rabbit
Страна-производитель диска: USA
Издатель (лейбл): CBS
Номер по каталогу: ZK 40685
Продолжительность: 36:08.56
Треклист:
01. White Rabbit [0:06:58.33]
02. Theme from "Summer of '42" [0:05:08.00]
03. Little Train [0:05:49.00]
04. California Dreamin' [0:07:23.00]
05. El Mar [0:10:50.22]
 
Лог создания рипа
Exact Audio Copy V1.0 beta 3 from 29. August 2011
Отчёт EAC об извлечении, выполненном 5. апреля 2012, 10:25
George Benson / White Rabbit
Дисковод: SONY CD-RW CRX230ED Adapter: 0 ID: 1
Режим чтения : Достоверность
Использование точного потока : Да
Отключение кэша аудио : Да
Использование указателей C2 : Нет
Коррекция смещения при чтении : 6
Способность читать области Lead-in и Lead-out : Нет
Заполнение пропущенных сэмплов тишиной : Да
Удаление блоков с тишиной в начале и конце : Нет
При вычислениях CRC использовались нулевые сэмплы : Да
Интерфейс : Встроенный Win32-интерфейс для Win NT/2000
Выходной формат : Внутренние WAV-операции
Формат сэмплов : 44.100 Гц; 16 бит; стерео
TOC извлечённого CD
Трек | Старт | Длительность | Начальный сектор | Конечный сектор
---------------------------------------------------------------------
1 | 0:00.00 | 6:58.25 | 0 | 31374
2 | 6:58.25 | 5:08.00 | 31375 | 54474
3 | 12:06.25 | 5:49.00 | 54475 | 80649
4 | 17:55.25 | 7:23.00 | 80650 | 113874
5 | 25:18.25 | 10:50.17 | 113875 | 162641
Характеристики диапазона извлечения и сообщения об ошибках
Выбранный диапазон
Имя файла E:\MusicCD\Torrent\George Benson - White Rabbit\George Benson - White Rabbit.wav
Пиковый уровень 95.9 %
Скорость извлечения 7.7 X
Качество диапазона 100.0 %
CRC теста 67AFC4F1
CRC копии 67AFC4F1
Копирование... OK
Ошибок не произошло
AccurateRip: сводка
Трек 1 : извлечено точно (доверие 9) [7CA7939C] (AR v1)
Трек 2 : извлечено точно (доверие 9) [95981B1C] (AR v1)
Трек 3 : извлечено точно (доверие 9) [29559EA9] (AR v1)
Трек 4 : извлечено точно (доверие 8) [174BDA36] (AR v1)
Трек 5 : извлечено точно (доверие 7) [C6CC0692] (AR v1)
Все треки извлечены точно
Конец отчёта
==== Контрольная сумма отчёта 224E1E2A68EE82AA115C5AEFA2E685C8353044F1D08851B250CA1CA8EBA6F26C ====
 
Matrix
 
1973 - George Benson Quartet - After Hours (Live at Casa Caribe Club)
Страна-производитель диска: Italy
Издатель (лейбл): Universe / Comet Records
Номер по каталогу: UV 057/2
Продолжительность: 1:08:41.60+1:01:48.69
Треклист:
Disc 1
01. Love For Sale [0:14:20.42]
02. (I'm Afraid) The Masquerade Is Over [0:09:29.77]
03. There Will Never Be Another You [0:10:50.66]
04. All Blues [0:12:51.46]
05. Witchcraft [0:10:38.76]
06. Blue Bossa [0:10:30.50]
Disc 2
01. Oleo [0:10:29.33]
02. Lil' Darlin' [0:11:10.49]
03. All The Things You Are [0:08:59.17]
04. Invitations [0:10:54.40]
05. Love Walked In [0:13:32.49]
06. Dahlin's Delight [0:06:42.80]
 
Лог создания рипа Disc 1
Exact Audio Copy V1.0 beta 3 from 29. August 2011
Отчёт EAC об извлечении, выполненном 27. апреля 2012, 8:38
George Benson / After Hours (Disc 1)
Дисковод: SONY CD-RW CRX230ED Adapter: 0 ID: 1
Режим чтения : Достоверность
Использование точного потока : Да
Отключение кэша аудио : Да
Использование указателей C2 : Нет
Коррекция смещения при чтении : 6
Способность читать области Lead-in и Lead-out : Нет
Заполнение пропущенных сэмплов тишиной : Да
Удаление блоков с тишиной в начале и конце : Нет
При вычислениях CRC использовались нулевые сэмплы : Да
Интерфейс : Встроенный Win32-интерфейс для Win NT/2000
Выходной формат : Внутренние WAV-операции
Формат сэмплов : 44.100 Гц; 16 бит; стерео
TOC извлечённого CD
Трек | Старт | Длительность | Начальный сектор | Конечный сектор
---------------------------------------------------------------------
1 | 0:00.00 | 14:20.32 | 0 | 64531
2 | 14:20.32 | 9:29.58 | 64532 | 107264
3 | 23:50.15 | 10:50.50 | 107265 | 156064
4 | 34:40.65 | 12:51.35 | 156065 | 213924
5 | 47:32.25 | 10:38.57 | 213925 | 261831
6 | 58:11.07 | 10:30.38 | 261832 | 309119
Характеристики диапазона извлечения и сообщения об ошибках
Выбранный диапазон
Имя файла E:\MusicCD\Torrent\George Bens
Приватный:
Нет (DHT включён)
Размер:
14.89 Гб (15,993,329,725 байт) » файлов: 571
Участники:
0 раздают, 0 качают (0 участников всего)
Внешние участники:
--- [ Обновить ]
For power users only: no seeders - write to support@pro-jazz.com. Для power user: нет сидеров - пишите на support@pro-jazz.com.
23:38
129
Нет комментариев. Ваш будет первым!